[4K电影] 一卢比战记 / Sarkaru Vaari Paata (2022) 4K高清版本下载

[复制链接]

2163

主题

2306

帖子

1万

积分

超级版主

Rank: 8Rank: 8

积分
16861
 楼主| 发表于 2022-6-29 10:06:43 | 显示全部楼层 |阅读模式
QQ图片20220629095811_副本.png

◎译  名 一卢比战记
◎片  名 Sarkaru Vaari Paata
◎年  代 2022
◎产  地 印度
◎类  别 动作
◎语  言 泰卢固语
◎上映日期 2022-05-12(印度)
◎IMDb评分  5.9/10 from 8514 users
◎IMDb链接  https://www.imdb.com/title/tt12422308/
◎豆瓣评分 /10 from 0 users
◎豆瓣链接 https://movie.douban.com/subject/35863728/
◎主  演 迈赫什·巴布 Mahesh Babu
       凯瑟瑞·苏雷什 Keerthi Suresh
                  Duy Beck  Duy Beck
       维尼拉·基肖尔 Vennela Kishore
       克利须那·穆拉里·波萨尼 Krishna Murali Posani



◎简  介


  父母去世后,Mahesh aka Mahi在美国长大,创办了一家名为Mahi Finance Corporation的贷款机构。当债务人不还钱时,他有自己的暴力方式来提取债务,在他爱上了一个名叫卡拉瓦蒂的女人之后,这种情况发生了变化,卡拉瓦蒂欺骗他为她的学习提供贷款,而实际上她是一个赌博成瘾者。在意识到这一点后,他试图从她那里榨取债务,最终回到印度,在那里他遇到了她的父亲Rajendranath,他是一位强大的国会议员和实业家,居住在Vizag。当试图杀死Mahi的生活时,冲突升温了,他透露他在那里提取的不仅仅是卡拉瓦蒂的债务。

Media Info

Format                                   : Matroska
Format version                           : Version 4
File size                                : 12.8 GiB
Duration                                 : 2 h 40 min
Overall bit rate                         : 11.4 Mb/s
Movie name                               : Encoded By themoviesboss
Encoded date                             : UTC 2022-06-28 14:29:05
Writing application                      : mkvmerge
Writing library                          : libebml v1.4.2 + libmatroska v1.6.4
Video
ID                                       : 1
Format                                   : HEVC
Format/Info                              : High Efficiency Video Coding
Format profile                           : Main@L5@Main
Codec ID                                 : V_MPEGH/ISO/HEVC
Duration                                 : 2 h 40 min
Bit rate                                 : 9 483 kb/s
Width                                    : 3 840 pixels
Height                                   : 1 600 pixels
Display aspect ratio                     : 2.40:1
Frame rate mode                          : Constant
Frame rate                               : 24.000 FPS
Standard                                 : NTSC
Color space                              : YUV
Chroma subsampling                       : 4:2:0
Bit depth                                : 8 bits
Bits/(Pixel*Frame)                       : 0.064
Stream size                              : 10.6 GiB (83%)
Title                                    : themoviesboss
Writing library                          : x265 2.9_elemental+1-9e0607aa5b6f:[Linux][GCC 4.8.5][64 bit] 8bit+10bit+12bit
Default                                  : Yes
Forced                                   : No
Color range                              : Limited
Color primaries                          : BT.709
Transfer characteristics                 : BT.709
Matrix coefficients                      : BT.709

Audio #1
ID                                       : 2
Format                                   : E-AC-3
Format/Info                              : Enhanced AC-3
Commercial name                          : Dolby Digital Plus
Codec ID                                 : A_EAC3
Duration                                 : 2 h 40 min
Bit rate mode                            : Constant
Bit rate                                 : 640 kb/s
Channel(s)                               : 6 channels
Channel layout                           : L R C LFE Ls Rs
Sampling rate                            : 48.0 kHz
Frame rate                               : 31.250 FPS (1536 SPF)
Compression mode                         : Lossy
Stream size                              : 734 MiB (6%)
Title                                    : themoviesboss
Language                                 : Telugu
Service kind                             : Complete Main
Default                                  : No
Forced                                   : No

Audio #2
ID                                       : 3
Format                                   : E-AC-3
Format/Info                              : Enhanced AC-3
Commercial name                          : Dolby Digital Plus
Codec ID                                 : A_EAC3
Duration                                 : 2 h 40 min
Bit rate mode                            : Constant
Bit rate                                 : 640 kb/s
Channel(s)                               : 6 channels
Channel layout                           : L R C LFE Ls Rs
Sampling rate                            : 48.0 kHz
Frame rate                               : 31.250 FPS (1536 SPF)
Compression mode                         : Lossy
Stream size                              : 735 MiB (6%)
Title                                    : themoviesboss
Language                                 : Tamil
Service kind                             : Complete Main
Default                                  : No
Forced                                   : No

Audio #3
ID                                       : 4
Format                                   : E-AC-3
Format/Info                              : Enhanced AC-3
Commercial name                          : Dolby Digital Plus
Codec ID                                 : A_EAC3
Duration                                 : 2 h 40 min
Bit rate mode                            : Constant
Bit rate                                 : 640 kb/s
Channel(s)                               : 6 channels
Channel layout                           : L R C LFE Ls Rs
Sampling rate                            : 48.0 kHz
Frame rate                               : 31.250 FPS (1536 SPF)
Compression mode                         : Lossy
Stream size                              : 735 MiB (6%)
Title                                    : themoviesboss
Language                                 : Malayalam
Service kind                             : Complete Main
Default                                  : No
Forced                                   : No

Text #1
ID                                       : 5
Format                                   : UTF-8
Codec ID                                 : S_TEXT/UTF8
Codec ID/Info                            : UTF-8 Plain Text
Duration                                 : 2 h 34 min
Bit rate                                 : 65 b/s
Count of elements                        : 1898
Stream size                              : 74.1 KiB (0%)
Title                                    : themoviesboss
Language                                 : English
Default                                  : No
Forced                                   : No

Text #2
ID                                       : 6
Format                                   : UTF-8
Codec ID                                 : S_TEXT/UTF8
Codec ID/Info                            : UTF-8 Plain Text
Duration                                 : 2 h 34 min
Bit rate                                 : 68 b/s
Count of elements                        : 1895
Stream size                              : 77.6 KiB (0%)
Title                                    : themoviesboss
Language                                 : English
Default                                  : Yes
Forced                                   : No
资源速度为零或资源敏感被和谐时,推荐使用qBittorrent等下载软件,有条件的推荐115更好的下载软件!

下载地址:


游客,如果您要查看本帖隐藏内容请回复





上一篇:暗夜凶光 / Dark.Light (2022) 4K高清版本下载
下一篇:最后的风之子(俄版)/ The Last Airbender (2010)4K高清版本下载
回复

使用道具 举报

1

主题

1385

帖子

4175

积分

4K家园VIP

Rank: 9Rank: 9Rank: 9

积分
4175
发表于 2022-6-29 10:06:48 | 显示全部楼层
锄禾日当午,发帖真辛苦。谁知坛中餐,帖帖皆辛苦!
回复 支持 反对

使用道具 举报

0

主题

1368

帖子

4118

积分

4K家园VIP

Rank: 9Rank: 9Rank: 9

积分
4118
发表于 2022-6-29 10:32:57 | 显示全部楼层
LZ帖子不给力,勉强给回复下吧
回复 支持 反对

使用道具 举报

2

主题

1438

帖子

4152

积分

中级会员

Rank: 4

积分
4152
发表于 2022-6-29 10:37:07 | 显示全部楼层
啥玩应呀
回复 支持 反对

使用道具 举报

48

主题

1537

帖子

4483

积分

4K家园VIP

Rank: 9Rank: 9Rank: 9

积分
4483
发表于 2022-6-29 10:38:16 | 显示全部楼层
介是神马?!!
回复 支持 反对

使用道具 举报

41

主题

1537

帖子

4443

积分

4K家园VIP

Rank: 9Rank: 9Rank: 9

积分
4443
发表于 2022-6-29 10:55:50 来自手机 | 显示全部楼层
4K应该不错,我也下个看看
回复 支持 反对

使用道具 举报

0

主题

1

帖子

6

积分

新手上路

Rank: 1

积分
6
发表于 2022-6-29 20:37:35 | 显示全部楼层
点赞点赞点赞点赞点赞点赞点赞
回复 支持 反对

使用道具 举报

0

主题

10

帖子

47

积分

新手上路

Rank: 1

积分
47
发表于 2022-6-30 03:32:57 | 显示全部楼层
阿三神片?看上去吊炸天
回复 支持 反对

使用道具 举报

0

主题

132

帖子

315

积分

新手上路

Rank: 1

积分
315
发表于 2022-6-30 09:52:26 | 显示全部楼层
xzxvczxcvzxcvzxvczxcvzxcvxcv
[url=http://www.baidianfeng51.cn/]刘云涛[/url]
回复 支持 反对

使用道具 举报

0

主题

1

帖子

10

积分

新手上路

Rank: 1

积分
10
发表于 2022-6-30 21:33:18 | 显示全部楼层
感谢分享,楼主幸苦
回复 支持 反对

使用道具 举报

您需要登录后才可以回帖 登录 | 立即注册

本版积分规则

精彩图文
Archiver|手机版|TAG|Sitemap|新帖|专题|联系我们:邮箱: 4kjia.com@gmail.com   

4k家园   ©2019