第六感之吻 [简繁粤中字](2022)第一季/全12集/4K高清版本下载

[复制链接]

188

主题

211

帖子

2061

积分

版主

Rank: 7Rank: 7Rank: 7

积分
2061
 楼主| 发表于 2022-6-29 22:17:04 | 显示全部楼层 |阅读模式
MV5BYWVmY2ZhNzYtMmM4NC00MzdkLThmNjMtNTFkZDY4MjhjMWJmXkEyXkFqcGdeQXVyNjk1NzU1Mjk@.jpg

◎译  名 第六感之吻/接吻第六感
◎片  名 Kiss.Sixth.Sense
◎年  代 2022
◎产  地 韩国
◎类  别 爱情
◎语  言 韩语
◎上映日期 2022-05-25(韩国)
◎IMDb评分  8.7/10 from 103 users
◎IMDb链接  https://www.imdb.com/title/tt20235634/
◎豆瓣评分 7.4/10 from 759 users
◎豆瓣链接 https://movie.douban.com/subject/35559828/
◎集  数 12
◎导  演 南基勋 Nam Gi-hoon
◎编  剧 全宥利 Jeon Yuri
◎主  演 尹启相 Yoon Kyesang
       徐智慧 Seo Ji-hye
       金智锡 Ji-seok Kim
                  富婷 Rich Ting
       李珠妍 Lee Joo-yeon
                  金佳银 Kim Ga-eun
                  黄宝拉 Hwang Bo-ra
                  金美秀 Kim Mi-Soo
                  基都金 Gi-du Kim
                  尹正勋 Yoon Jung-Hoon
                  仁浩泰 In-ho Tae
                  俞正浩 Yoo Jung-ho
                  严孝燮 Eom Hyo-Seob
                  李在旭 Jae-Wook Lee
                  金赛纶 Kim Sae-ron
                  乔熙峰 Hie-bong Jo
                  李汉威 Lee Seung-Hee
                  金喜正 Kim Hee-Jung



◎简  介


  该片根据同名网络小说改编,讲述有着接吻就会有看到未来这一能力的艺数因失误亲吻了上司车民厚的脖子后看到了两个人19禁的未来的同时发生的故事。

Video
ID : 1
Format : HEVC
Format/Info : High Efficiency Video Coding
Format profile : Main 10@L5@High
HDR format : Dolby Vision, Version 1.0, dvhe.08.06, BL+RPU, HDR10 compatible / SMPTE ST 2086, HDR10 compatible
Codec ID : V_MPEGH/ISO/HEVC
Duration : 1 h 13 min
Bit rate : 16.4 Mb/s
Width : 3 840 pixels
Height : 2 160 pixels
Display aspect ratio : 16:9
Frame rate mode : Constant
Frame rate : 23.976 (24000/1001) FPS
Color space : YUV
Chroma subsampling : 4:2:0
Bit depth : 10 bits
Bits/(Pixel*Frame) : 0.082
Stream size : 8.37 GiB (98%)
Default : Yes
Forced : No
Color range : Limited
Color primaries : BT.2020
Transfer characteristics : PQ
Matrix coefficients : BT.2020 non-constant
Mastering display color primaries : Display P3
Mastering display luminance : min: 0.0001 cd/m2, max: 1000 cd/m2

Audio
ID : 2
Format : E-AC-3
Format/Info : Enhanced AC-3
Commercial name : Dolby Digital Plus
Codec ID : A_EAC3
Duration : 1 h 13 min
Bit rate mode : Constant
Bit rate : 256 kb/s
Channel(s) : 6 channels
Channel layout : L R C LFE Ls Rs
Sampling rate : 48.0 kHz
Frame rate : 31.250 FPS (1536 SPF)
Compression mode : Lossy
Stream size : 134 MiB (2%)
Language : Korean
Service kind : Complete Main
Default : Yes
Forced : No

Text #1
ID : 3
Format : UTF-8
Codec ID : S_TEXT/UTF8
Codec ID/Info : UTF-8 Plain Text
Duration : 1 h 13 min
Bit rate : 86 b/s
Count of elements : 1412
Stream size : 46.2 KiB (0%)
Title : SDH
Language : Korean
Default : No
Forced : No

Text #2
ID : 4
Format : UTF-8
Codec ID : S_TEXT/UTF8
Codec ID/Info : UTF-8 Plain Text
Duration : 1 h 11 min
Bit rate : 63 b/s
Count of elements : 1189
Stream size : 33.7 KiB (0%)
Title : SDH
Language : English
Default : No
Forced : No

Text #3
ID : 5
Format : UTF-8
Codec ID : S_TEXT/UTF8
Codec ID/Info : UTF-8 Plain Text
Duration : 1 h 12 min
Bit rate : 49 b/s
Count of elements : 915
Stream size : 26.3 KiB (0%)
Language : Japanese
Default : No
Forced : No

Text #4
ID : 6
Format : UTF-8
Codec ID : S_TEXT/UTF8
Codec ID/Info : UTF-8 Plain Text
Duration : 1 h 12 min
Bit rate : 49 b/s
Count of elements : 1042
Stream size : 26.6 KiB (0%)
Title : 中文(粤语)
Language : 中文
Default : No
Forced : No

Text #5
ID : 7
Format : UTF-8
Codec ID : S_TEXT/UTF8
Codec ID/Info : UTF-8 Plain Text
Duration : 1 h 11 min
Bit rate : 50 b/s
Count of elements : 1052
Stream size : 26.7 KiB (0%)
Title : 中文(简体)
Language : 中文
Default : No
Forced : No

Text #6
ID : 8
Format : UTF-8
Codec ID : S_TEXT/UTF8
Codec ID/Info : UTF-8 Plain Text
Duration : 1 h 12 min
Bit rate : 49 b/s
Count of elements : 1042
Stream size : 26.5 KiB (0%)
Title : 中文(繁体)
Language : 中文
Default : No
Forced : No


Menu
01:12:17.588 : en:Credits


下载地址:

游客,如果您要查看本帖隐藏内容请回复

游客,如果您要查看本帖隐藏内容请回复





上一篇:黑袍纠察队[简繁中字](2022)第三季/8集全/4K高清版本下载
下一篇:[纪录片] 美丽的美国 第一季/全6集 (2022)/ 4K高清版本下载
回复

使用道具 举报

13

主题

1221

帖子

3635

积分

4K家园VIP

Rank: 9Rank: 9Rank: 9

积分
3635
发表于 2022-6-29 22:17:24 | 显示全部楼层
秀起来~
回复 支持 反对

使用道具 举报

5

主题

1701

帖子

4709

积分

4K家园VIP

Rank: 9Rank: 9Rank: 9

积分
4709
发表于 2022-6-30 07:52:23 | 显示全部楼层
看起来不错
回复 支持 反对

使用道具 举报

0

主题

5

帖子

24

积分

新手上路

Rank: 1

积分
24
发表于 2022-6-30 14:25:14 | 显示全部楼层

非常棒的系列剧
回复 支持 反对

使用道具 举报

51

主题

1579

帖子

4553

积分

4K家园VIP

Rank: 9Rank: 9Rank: 9

积分
4553
发表于 2022-6-30 16:54:27 | 显示全部楼层
没明白
回复 支持 反对

使用道具 举报

47

主题

1533

帖子

4441

积分

4K家园VIP

Rank: 9Rank: 9Rank: 9

积分
4441
发表于 2022-6-30 18:40:34 | 显示全部楼层
是爷们的娘们的都帮顶!大力支持
回复 支持 反对

使用道具 举报

49

主题

1545

帖子

4467

积分

4K家园VIP

Rank: 9Rank: 9Rank: 9

积分
4467
发表于 2022-7-1 06:20:29 来自手机 | 显示全部楼层
正需要
回复 支持 反对

使用道具 举报

0

主题

3

帖子

45

积分

4K家园VIP

Rank: 9Rank: 9Rank: 9

积分
45
发表于 2022-7-1 08:53:01 来自手机 | 显示全部楼层
我要看看
回复

使用道具 举报

0

主题

1

帖子

6

积分

新手上路

Rank: 1

积分
6
发表于 2022-7-2 23:57:56 | 显示全部楼层
谢谢.........................
回复

使用道具 举报

0

主题

40

帖子

139

积分

新手上路

Rank: 1

积分
139
发表于 2022-7-9 13:43:48 | 显示全部楼层
感觉一般啊
回复 支持 反对

使用道具 举报

您需要登录后才可以回帖 登录 | 立即注册

本版积分规则

精彩图文
Archiver|手机版|TAG|Sitemap|新帖|专题|联系我们:邮箱: 4kjia.com@gmail.com   

4k家园   ©2019