[4K电影] 达曼达2 / Dakuaan.Da.Munda.2 (2022) 4K高清版本下载

[复制链接]

2118

主题

2259

帖子

1万

积分

超级版主

Rank: 8Rank: 8

积分
16577
 楼主| 发表于 2022-7-4 05:00:00 | 显示全部楼层 |阅读模式

QQ图片20220703213047_副本.png

◎译  名 达曼达2
◎片  名 Dakuaan.Da.Munda.2
◎年  代 2022
◎产  地 印度
◎类  别 动作 / 冒险
◎语  言 旁遮普语
◎上映日期 2022 年 5 月 27 日(印度)
◎IMDb评分 0/10 from 0 users
◎IMDb链接 https://www.imdb.com/title/tt14888342/
◎片  长 141分钟
◎导  演 曼迪普·贝尼帕尔 Mandeep Benipal
◎编  剧 Narinder Ambarsariya Narinder Ambarsariya / Manga Singh Antal Manga Singh Antal
◎演  员 德夫·哈罗德 Dev Kharoud
                  贾普吉·凯拉 Japji Khaira
                  拉吉·辛格·金贾 Raj Singh Jhinjar
                  Balwinder Bullet Balwinder Bullet
                  Lucky Dhaliwal Lucky Dhaliwal
                  鲍比·奥伊拉 Bobby Aujla
                  尼肖恩·布拉尔 Nishawn Bhullar
                  Deepak Kamboj Deepak Kamboj


◎简  介

         著名作家和教师“Manga Singh Antal”的自传,年轻的 Kabaddi 和排球运动员 Manga 成为了一名吸毒者,使他陷入了犯罪。
Media Info

Format : Matroska
Format version : Version 4
File size : 8.23 GiB
Duration : 2 h 30 min
Overall bit rate mode : Variable
Overall bit rate : 7 820 kb/s
Movie name : Dakuaan.Da.Munda.2.(2022).2160p.SDR.CHTV.WEB-DL.Panjabi.AAC.2.0.H264-themoviesboss
Encoded date : UTC 2022-07-03 06:27:57
Writing application : mkvmerge
Writing library : libebml v1.4.2 + libmatroska v1.6.4

Video
ID : 1
Format : AVC
Format/Info : Advanced Video Codec
Format profile : High@L5.1
Format settings : CABAC / 3 Ref Frames
Format settings, CABAC : Yes
Format settings, Reference frames : 3 frames
Codec ID : V_MPEG4/ISO/AVC
Duration : 2 h 30 min
Bit rate mode : Variable
Bit rate : 7 753 kb/s
Maximum bit rate : 20.0 Mb/s
Width : 3 840 pixels
Height : 2 160 pixels
Display aspect ratio : 16:9
Frame rate mode : Constant
Frame rate : 29.970 (30000/1001) FPS
Color space : YUV
Chroma subsampling : 4:2:0
Bit depth : 8 bits
Scan type : Progressive
Bits/(Pixel*Frame) : 0.031
Stream size : 8.16 GiB (99%)
Title : themoviesboss
Language : English
Default : Yes
Forced : No

Audio
ID : 2
Format : AAC LC SBR
Format/Info : Advanced Audio Codec Low Complexity with Spectral Band Replication
Commercial name : HE-AAC
Format settings : Explicit
Codec ID : A_AAC-2
Duration : 2 h 30 min
Bit rate : 64.0 kb/s
Channel(s) : 2 channels
Channel layout : L R
Sampling rate : 48.0 kHz
Frame rate : 23.438 FPS (2048 SPF)
Compression mode : Lossy
Stream size : 69.0 MiB (1%)
Title : themoviesboss
Language : Panjabi
Default : No
Forced : No

Text
ID : 3
Format : UTF-8
Codec ID : S_TEXT/UTF8
Codec ID/Info : UTF-8 Plain Text
Duration : 2 h 29 min
Bit rate : 60 b/s
Frame rate : 0.249 FPS
Count of elements : 2239
Stream size : 66.8 KiB (0%)
Title : themoviesboss[Full]
Language : English
Default : Yes
Forced : No


资源速度为零或资源敏感被和谐时,推荐使用qBittorrent等下载软件,有条件的推荐115更好的下载软件!

下载地址:


****此区域为收费内容****    需支付 9 金币后可查看立即购买





上一篇:普里色毗罗阇 / Prithviraj (2022) 4K高清版本下载
下一篇:侏罗纪世界3 [简体中字] (2022) 1080P高清版本下载
回复

使用道具 举报

46

主题

1473

帖子

4255

积分

4K家园VIP

Rank: 9Rank: 9Rank: 9

积分
4255
发表于 2022-7-4 05:00:07 | 显示全部楼层
回复 支持 反对

使用道具 举报

1

主题

1247

帖子

3759

积分

4K家园VIP

Rank: 9Rank: 9Rank: 9

积分
3759
发表于 2022-7-4 08:58:35 | 显示全部楼层
看着好像不错
回复 支持 反对

使用道具 举报

0

主题

426

帖子

2601

积分

注册会员

Rank: 2

积分
2601
发表于 2022-7-4 13:20:36 | 显示全部楼层
谢谢楼主分享
回复 支持 反对

使用道具 举报

0

主题

88

帖子

498

积分

新手上路

Rank: 1

积分
498
发表于 2022-7-4 17:08:27 | 显示全部楼层
看着好像不错
回复 支持 反对

使用道具 举报

0

主题

67

帖子

1744

积分

注册会员

Rank: 2

积分
1744
发表于 2022-7-4 17:16:14 | 显示全部楼层
看起来不错 收下了 谢谢
回复 支持 反对

使用道具 举报

0

主题

29

帖子

121

积分

新手上路

Rank: 1

积分
121
发表于 2022-7-4 18:12:43 | 显示全部楼层
印度电影还是有一些不错的
回复 支持 反对

使用道具 举报

3

主题

1417

帖子

4077

积分

4K家园VIP

Rank: 9Rank: 9Rank: 9

积分
4077
发表于 2022-7-5 06:20:17 | 显示全部楼层
专业抢沙发的!哈哈
回复 支持 反对

使用道具 举报

4

主题

1666

帖子

4598

积分

4K家园VIP

Rank: 9Rank: 9Rank: 9

积分
4598
发表于 2022-7-5 06:27:10 | 显示全部楼层
看帖要回,回帖才健康,在踩踩,楼主辛苦了!
回复 支持 反对

使用道具 举报

45

主题

1485

帖子

4303

积分

4K家园VIP

Rank: 9Rank: 9Rank: 9

积分
4303
发表于 2022-7-5 08:18:23 | 显示全部楼层
我也是坐沙发的
回复 支持 反对

使用道具 举报

您需要登录后才可以回帖 登录 | 立即注册

本版积分规则

精彩图文
Archiver|手机版|TAG|Sitemap|新帖|专题|联系我们:邮箱: 4kjia.com@gmail.com   

4k家园   ©2019