[纪录片] 美丽的美国 第一季/全6集 (2022)/ 4K高清版本下载

[复制链接]

2825

主题

3188

帖子

2万

积分

超级版主

Rank: 8Rank: 8

积分
26888
 楼主| 发表于 2022-7-6 13:23:16 | 显示全部楼层 |阅读模式
本帖最后由 没完没了 于 2022-7-6 13:25 编辑

MV5BYjJiNmY4ODEtMjk2Ny00ZjViLTg3NTktZDMzN2Q0NThlYmEzXkEyXkFqcGdeQXVyMTUzMTg2ODkz.jpg

◎译  名 美丽的美国
◎片  名 America.the.Beautiful
◎年  代 2022
◎产  地 美国
◎类  别 纪录片 / 冒险
◎语  言 英语
◎上映日期 2022-07-04(美国)
◎IMDb评分  9.0/10 from 17 users
◎IMDb链接  https://www.imdb.com/title/tt13891702/
◎集  数 6
◎主  演 迈克尔·B·乔丹

◎简  介


        这是我们热爱的土地,也是我们认为我们了解的土地。我们认为美国令人叹为观止的风景和野生动物是永恒的,但事实却大不相同。其独特的地理位置将自然的力量推向了极致,塑造和重塑了土地,并为生活带来了新的挑战。

Video
ID : 1
Format : HEVC
Format/Info : High Efficiency Video Coding
Format profile : Main 10@L5@High
HDR format : Dolby Vision, Version 1.0, dvhe.05.06, BL+RPU
Codec ID : dvhe
Codec ID/Info : High Efficiency Video Coding with Dolby Vision
Duration : 48 min 41 s
Bit rate : 16.5 Mb/s
Width : 3 840 pixels
Height : 2 160 pixels
Display aspect ratio : 16:9
Frame rate mode : Constant
Frame rate : 23.976 (24000/1001) FPS
Color space : YUV
Chroma subsampling : 4:2:0
Bit depth : 10 bits
Bits/(Pixel*Frame) : 0.083
Stream size : 5.62 GiB (98%)
Default : Yes
Alternate group : 1
Encoded date : UTC 2022-07-05 21:50:21
Tagged date : UTC 2022-07-05 21:50:56
Color range : Full
Codec configuration box : hvcC+dvcC

Audio
ID : 2
Format : E-AC-3
Format/Info : Enhanced AC-3
Commercial name : Dolby Digital Plus
Codec ID : ec-3
Duration : 48 min 41 s
Bit rate mode : Constant
Bit rate : 256 kb/s
Maximum bit rate : 270 kb/s
Channel(s) : 6 channels
Channel layout : L R C LFE Ls Rs
Sampling rate : 48.0 kHz
Frame rate : 31.250 FPS (1536 SPF)
Compression mode : Lossy
Stream size : 89.2 MiB (2%)
Title : English
Language : English
Service kind : Complete Main
Default : Yes
Alternate group : 1
Tagged date : UTC 2022-07-05 21:50:56

Text
ID : 3
Format : Timed Text
Codec ID : tx3g
Duration : 48 min 36 s
Bit rate mode : Variable
Bit rate : 57 b/s
Stream size : 20.5 KiB (0%)
Title : English
Language : English
Forced : No
Encoded date : UTC 2022-07-05 21:50:56
Tagged date : UTC 2022-07-05 21:50:56


下载地址:


游客,如果您要查看本帖隐藏内容请回复

游客,如果您要查看本帖隐藏内容请回复

游客,如果您要查看本帖隐藏内容请回复









上一篇:第六感之吻 [简繁粤中字](2022)第一季/全12集/4K高清版本下载
下一篇:谁有全能侦探社的资源吗?
回复

使用道具 举报

46

主题

1475

帖子

4261

积分

4K家园VIP

Rank: 9Rank: 9Rank: 9

积分
4261
发表于 2022-7-6 13:23:20 | 显示全部楼层
介是神马?!!
回复 支持 反对

使用道具 举报

0

主题

8

帖子

55

积分

新手上路

Rank: 1

积分
55
发表于 2022-7-6 19:01:31 | 显示全部楼层
新鲜出炉的吗
回复 支持 反对

使用道具 举报

48

主题

1547

帖子

4451

积分

4K家园VIP

Rank: 9Rank: 9Rank: 9

积分
4451
发表于 2022-7-6 20:23:16 | 显示全部楼层
站位支持
回复 支持 反对

使用道具 举报

47

主题

1533

帖子

4441

积分

4K家园VIP

Rank: 9Rank: 9Rank: 9

积分
4441
发表于 2022-7-7 00:03:35 | 显示全部楼层
哈哈,我只看看不说话
回复 支持 反对

使用道具 举报

5

主题

1366

帖子

3954

积分

中级会员

Rank: 4

积分
3954
发表于 2022-7-7 05:15:50 | 显示全部楼层
顶顶更健康
回复 支持 反对

使用道具 举报

0

主题

1361

帖子

3905

积分

4K家园VIP

Rank: 9Rank: 9Rank: 9

积分
3905
发表于 2022-7-7 05:18:56 | 显示全部楼层
前排支持下了哦~
回复 支持 反对

使用道具 举报

0

主题

1

帖子

6

积分

新手上路

Rank: 1

积分
6
发表于 2022-7-7 09:46:21 | 显示全部楼层
xiangkankan  
回复 支持 反对

使用道具 举报

0

主题

3

帖子

19

积分

新手上路

Rank: 1

积分
19
发表于 2022-7-8 17:36:15 | 显示全部楼层
渴望欣赏
回复

使用道具 举报

0

主题

1

帖子

6

积分

新手上路

Rank: 1

积分
6
发表于 2022-7-18 10:37:37 | 显示全部楼层
请给一下下载链接,谢谢!
回复 支持 反对

使用道具 举报

您需要登录后才可以回帖 登录 | 立即注册

本版积分规则

精彩图文
Archiver|手机版|TAG|Sitemap|新帖|专题|联系我们:邮箱: 4kjia.com@gmail.com   

4k家园   ©2019