[4K电影] 侏罗纪世界3 [简体中字] (2022) 1080P高清版本下载

  [复制链接]

2118

主题

2259

帖子

1万

积分

超级版主

Rank: 8Rank: 8

积分
16577
 楼主| 发表于 2022-7-6 21:59:26 | 显示全部楼层 |阅读模式
本帖最后由 最爱4K哟 于 2022-7-14 13:14 编辑

1664a63dc820560da7ed7bebde9f05b6_副本.jpg

◎译  名 侏罗纪世界3 / 侏罗纪世界3:统治 / 侏罗纪世界:统治霸权(港) / 侏罗纪世界:统霸天下(台) / 侏罗纪公园6 / Jurassic Park 6
◎片  名 Jurassic World: Dominion
◎年  代 2022
◎产  地 美国 / 马耳他
◎类  别 动作 / 科幻 / 冒险
◎语  言 英语
◎上映日期 2022-06-10(美国/中国大陆) / 2022-06-01(韩国)
◎IMDb评分 7.4/10 from 5587 users
◎IMDb链接 https://www.imdb.com/title/tt8041270/
◎豆瓣评分 6.3/10 (113671人评价)
◎豆瓣链接 https://movie.douban.com/subject/26873582/
◎片  长 146分钟
◎导  演 科林·特莱沃若 Colin Trevorrow
◎编  剧 科林·特莱沃若 Colin Trevorrow / 艾米丽·卡迈克尔 Emily Carmichael / 德里克·康纳利 Derek Connolly / 迈克尔·克莱顿 Michael Crichton
◎演  员 克里斯·帕拉特 Chris Pratt
       布莱丝·达拉斯·霍华德 Bryce Dallas Howard
       山姆·尼尔 Sam Neill
       劳拉·邓恩 Laura Dern
       杰夫·高布伦 Jeff Goldblum
       伊莎贝拉·瑟蒙 Isabella Sermon
       马莫多·阿西 Mamoudou Athie
       丹妮艾拉·皮内达 Daniella Pineda
       迪辰·拉克曼 Dichen Lachman
       黄荣亮 B.D. Wong
       克里斯托弗·普拉哈 Kristoffer Polaha
       奥玛·希 Omar Sy
       贾斯蒂斯·史密斯 Justice Smith
       坎贝尔·斯科特 Campbell Scott
       德汪达·怀斯 DeWanda Wise
       斯科特·黑兹 Scott Haze
       弗雷娅·帕克 Freya Parker
       瓦拉达·塞图 Varada Sethu
       格利尼斯·戴维斯 Glynis Davies
       埃尔娃·崔尔 Elva Trill
       柯基·法尔考 Cokey Falkow
       伯纳多·桑托斯 Bernardo Santos
       迪米特里“维加斯”蒂瓦约 Dimitri 'Vegas' Thivaios  
       小恩佐·斯奎利诺 Enzo Squillino Jr.
       特蕾莎·森登·加西亚 Teresa Cendon-Garcia
       杰克·约翰逊 Jake M. Johnson
       乔·阿泽帕迪 Joe Azzopardi
       帕特里克·克劳利 Patrick Crowley
       弗兰克·马歇尔 Frank Marshall
       史蒂文·斯皮尔伯格 Steven Spielberg
       科林·特莱沃若 Colin Trevorrow
       温斯顿·阿佐帕迪 Winston Azzopardi
       迈克·吉亚奇诺 Michael Giacchino
       约翰·施瓦兹曼 John Schwartzman
       马克·桑格 Mark Sanger
       妮娜·古德 Nina Gold
       凯文·詹金斯 Kevin Jenkins
       理查德·罗伯茨 Richard Roberts


◎简  介


  影片为《侏罗纪世界》系列的完结篇,故事的开篇设定在纳布拉尔岛被摧毁的四年后。如今,恐龙在世界各地与人类共同生活、共同捕猎。这一脆弱的平衡将重塑未来,并最终决定人类能否与史上最可怕生物共享这颗星球,并继续站在食物链的顶端。

General
Complete name                  : F:\下载电影\【4Kjia】侏罗纪世界3 Jurassic.World.3.Dominion.2022.KORSUB.1080p.WEBRip.DD5.1.x264-SHITBOX .alang
Format                         : Matroska
Format version                 : Version 4
File size                      : 8.61 GiB
Duration                       : 2 h 27 min
Overall bit rate               : 8 385 kb/s
Encoded date                   : UTC 2022-07-06 13:40:34
Writing application            : mkvmerge v68.0.0 ('The Curtain') 64-bit
Writing library                : libebml v1.4.2 + libmatroska v1.6.4

Video
ID                             : 1
Format                         : AVC
Format/Info                    : Advanced Video Codec
Format profile                 : Main@L4
Format settings                : CABAC / 2 Ref Frames
Format settings, CABAC         : Yes
Format settings, Reference fra : 2 frames
Format settings, GOP           : M=1, N=30
Codec ID                       : V_MPEG4/ISO/AVC
Duration                       : 2 h 27 min
Bit rate mode                  : Constant
Bit rate                       : 8 000 kb/s
Width                          : 1 920 pixels
Height                         : 1 080 pixels
Display aspect ratio           : 16:9
Frame rate mode                : Constant
Frame rate                     : 23.976 (24000/1001) FPS
Color space                    : YUV
Chroma subsampling             : 4:2:0
Bit depth                      : 8 bits
Scan type                      : Progressive
Bits/(Pixel*Frame)             : 0.161
Stream size                    : 8.21 GiB (95%)
Default                        : Yes
Forced                         : No

Audio
ID                             : 2
Format                         : AC-3
Format/Info                    : Audio Coding 3
Commercial name                : Dolby Digital
Codec ID                       : A_AC3
Duration                       : 2 h 27 min
Bit rate mode                  : Constant
Bit rate                       : 384 kb/s
Channel(s)                     : 6 channels
Channel layout                 : L R C LFE Ls Rs
Sampling rate                  : 48.0 kHz
Frame rate                     : 31.250 FPS (1536 SPF)
Compression mode               : Lossy
Stream size                    : 404 MiB (5%)
Language                       : English
Service kind                   : Complete Main
Default                        : Yes
Forced                         : No

Text #1
ID                             : 3
Format                         : UTF-8
Codec ID                       : S_TEXT/UTF8
Codec ID/Info                  : UTF-8 Plain Text
Duration                       : 2 h 14 min
Bit rate                       : 46 b/s
Count of elements              : 1432
Stream size                    : 45.5 KiB (0%)
Language                       : English
Default                        : Yes
Forced                         : No

Text #2
ID                             : 4
Format                         : UTF-8
Codec ID                       : S_TEXT/UTF8
Codec ID/Info                  : UTF-8 Plain Text
Duration                       : 2 h 15 min
Bit rate                       : 36 b/s
Count of elements              : 1553
Stream size                    : 36.2 KiB (0%)
Default                        : Yes
Forced                         : Yes

下载地址:零金币下载


4Kjia独家内封简体中字资源,欢迎下载

1080P高清 8.61GB版本
游客,如果您要查看本帖隐藏内容请回复


1080P高清 1.60GB版本
游客,如果您要查看本帖隐藏内容请回复




上一篇:达曼达2 / Dakuaan.Da.Munda.2 (2022) 4K高清版本下载
下一篇:裸体星期二 / Nude.Tuesday (2022) 4K高清版本下载
回复

使用道具 举报

2118

主题

2259

帖子

1万

积分

超级版主

Rank: 8Rank: 8

积分
16577
 楼主| 发表于 2022-7-7 09:18:58 | 显示全部楼层
QQ图片20220707090034.png QQ图片20220707090106.png QQ图片20220707090143.png QQ图片20220707090223.png QQ图片20220707090418.png QQ图片20220707090507.png
回复 支持 反对

使用道具 举报

47

主题

1484

帖子

4246

积分

4K家园VIP

Rank: 9Rank: 9Rank: 9

积分
4246
发表于 2022-7-6 21:59:31 | 显示全部楼层
分享的不错,希望楼主继续分享
回复 支持 反对

使用道具 举报

0

主题

6

帖子

43

积分

新手上路

Rank: 1

积分
43
发表于 2022-7-6 22:13:30 | 显示全部楼层
分享的不错,希望楼主继续分享
回复 支持 反对

使用道具 举报

0

主题

3

帖子

22

积分

新手上路

Rank: 1

积分
22
发表于 2022-7-6 22:16:22 | 显示全部楼层
这么快就有资源了?真不错
回复 支持 反对

使用道具 举报

0

主题

10

帖子

69

积分

新手上路

Rank: 1

积分
69
发表于 2022-7-6 22:36:17 | 显示全部楼层
希望楼主继续分享
回复 支持 反对

使用道具 举报

3

主题

1301

帖子

3921

积分

4K家园VIP

Rank: 9Rank: 9Rank: 9

积分
3921
发表于 2022-7-6 22:39:05 | 显示全部楼层
有空一起交流一下
回复 支持 反对

使用道具 举报

2

主题

1656

帖子

4510

积分

4K家园VIP

Rank: 9Rank: 9Rank: 9

积分
4510
发表于 2022-7-6 23:30:06 | 显示全部楼层
介是神马?!!
回复 支持 反对

使用道具 举报

0

主题

8

帖子

73

积分

新手上路

Rank: 1

积分
73
发表于 2022-7-6 23:39:56 | 显示全部楼层
太好了,有资源了
回复 支持 反对

使用道具 举报

0

主题

1

帖子

10

积分

新手上路

Rank: 1

积分
10
发表于 2022-7-6 23:54:48 | 显示全部楼层
谢谢分享 很棒
回复 支持 反对

使用道具 举报

0

主题

5

帖子

154

积分

4K家园VIP

Rank: 9Rank: 9Rank: 9

积分
154
发表于 2022-7-6 23:59:00 来自手机 | 显示全部楼层
貌似还没到时候  115下不动
回复 支持 反对

使用道具 举报

您需要登录后才可以回帖 登录 | 立即注册

本版积分规则

精彩图文
Archiver|手机版|TAG|Sitemap|新帖|专题|联系我们:邮箱: 4kjia.com@gmail.com   

4k家园   ©2019