[4K电影] 奖命 / 1Up (2022) 4K高清版本下载

[复制链接]

2118

主题

2259

帖子

1万

积分

超级版主

Rank: 8Rank: 8

积分
16577
 楼主| 发表于 2022-7-8 10:48:58 | 显示全部楼层 |阅读模式
本帖最后由 最爱4K哟 于 2022-7-8 10:51 编辑

QQ图片20220708095544_副本.png

◎译  名 奖命
◎片  名 1Up
◎年  代 2022
◎产  地 加拿大
◎类  别 喜剧
◎语  言 英语
◎上映日期 2022 年 7 月 8 日(澳大利亚)
◎IMDb评分 0/10 from 0 users
◎IMDb链接 https://www.imdb.com/title/tt13487922
◎豆瓣评分 0/10 from 0 users
◎豆瓣链接 https://movie.douban.com/subject/35238550/
◎片  长 100 分钟
◎导  演 凯尔·纽曼 Kyle Newman
◎编  剧 茱莉娅·约克斯 Julia Yorks
◎演  员 鲁比·罗丝 Ruby Rose
                   帕里斯·贝尔克 Paris Berelc
                   让-米歇尔·勒加尔 Jean-Michel Le Gal
                   达西·威廉森 Darcy Williamson
                   Elia Press Elia Press                  


◎简  介


       THR独家报道:艾略特·佩吉退出主演新片《奖命》(1UP),角色换由鲁比·洛斯出演。
  该片已在多伦多开拍,是一部电竞题材喜剧片,据称风格类似《完美音调》,以“玩家门”为背景,即玩家与游戏媒体之间的战争,涉及游戏媒体腐败、游戏产业性别歧视等话题。
  凯尔·纽曼(《刺客学妹》《星战迷友》)执导,茱莉娅·约克斯(《靴猫大冒险》)写剧本。演员还有帕里斯·贝尔克(《亚莉克莎与凯蒂》《休比的万圣节》)、泰勒·扎克哈尔·佩雷斯(《亲吻亭2》)、哈莉·尼夫(《暗杀国度》《104号房间》)、尼古拉斯·库姆(《爱探险的朵拉》《午夜阳光》)。
  讲述女玩家Vivian Lee(贝尔克)受够了同行男玩家的性别歧视,退出了大学电竞团。由于奖学金岌岌可危,她不得不组建一支水平多样化的全女子团队,与男生竞争。在一位经历过“游戏门”的神秘教练(洛斯)的帮助下,Lee这个由一群技术不太熟练、对环境不太适应的人组成的队伍意料之外战胜了不少精英玩家。
Video
ID                             : 1
Format                         : HEVC
Format/Info                    : High Efficiency Video Coding
Format profile                 : Main 10@L5@Main
HDR format                     : SMPTE ST 2094 App 4, Version 1, HDR10+ Profile B compatible
Codec ID                       : V_MPEGH/ISO/HEVC
Duration                       : 1 h 40 min
Bit rate                       : 14.3 Mb/s
Width                          : 3 840 pixels
Height                         : 2 160 pixels
Display aspect ratio           : 16:9
Frame rate mode                : Constant
Frame rate                     : 23.976 (24000/1001) FPS
Color space                    : YUV
Chroma subsampling             : 4:2:0
Bit depth                      : 10 bits
Bits/(Pixel*Frame)             : 0.072
Stream size                    : 10.1 GiB (94%)
Language                       : English
Default                        : Yes
Forced                         : No
Color range                    : Limited
Color primaries                : BT.2020
Transfer characteristics       : PQ
Matrix coefficients            : BT.2020 non-constant
Mastering display color primar : Display P3
Mastering display luminance    : min: 0.0001 cd/m2, max: 1000 cd/m2
Maximum Content Light Level    : 1161 cd/m2
Maximum Frame-Average Light Le : 512 cd/m2

Audio
ID                             : 2
Format                         : E-AC-3
Format/Info                    : Enhanced AC-3
Commercial name                : Dolby Digital Plus
Codec ID                       : A_EAC3
Duration                       : 1 h 40 min
Bit rate mode                  : Constant
Bit rate                       : 640 kb/s
Channel(s)                     : 6 channels
Channel layout                 : L R C LFE Ls Rs
Sampling rate                  : 48.0 kHz
Frame rate                     : 31.250 FPS (1536 SPF)
Compression mode               : Lossy
Stream size                    : 460 MiB (4%)
Language                       : English
Service kind                   : Complete Main
Default                        : Yes
Forced                         : No

Text #1
ID                             : 3
Format                         : UTF-8
Codec ID                       : S_TEXT/UTF8
Codec ID/Info                  : UTF-8 Plain Text
Title                          : Forced
Language                       : English
Default                        : Yes
Forced                         : Yes

Text #2
ID                             : 4
Format                         : UTF-8
Codec ID                       : S_TEXT/UTF8
Codec ID/Info                  : UTF-8 Plain Text
Title                          : SDH
Language                       : English
Default                        : No
Forced                         : No

Text #3
ID                             : 5
Format                         : UTF-8
Codec ID                       : S_TEXT/UTF8
Codec ID/Info                  : UTF-8 Plain Text
Language                       : English
Default                        : No
Forced                         : No

Text #4
ID                             : 6
Format                         : UTF-8
Codec ID                       : S_TEXT/UTF8
Codec ID/Info                  : UTF-8 Plain Text
Title                          : Latin American
Language                       : Spanish
Default                        : No
Forced                         : No

资源速度为零或资源敏感被和谐时,推荐使用qBittorrent等下载软件,有条件的推荐115更好的下载软件!

下载地址:

游客,如果您要查看本帖隐藏内容请回复






上一篇:星尘 / Stardust (2007) 4K高清版本下载
下一篇:特种兵 / The Commando (2022) 4K高清版本下载
回复

使用道具 举报

1

主题

1364

帖子

4120

积分

4K家园VIP

Rank: 9Rank: 9Rank: 9

积分
4120
发表于 2022-7-8 10:49:07 | 显示全部楼层
这么强,支持楼主,佩服
回复 支持 反对

使用道具 举报

0

主题

426

帖子

2601

积分

注册会员

Rank: 2

积分
2601
发表于 2022-7-8 12:49:29 | 显示全部楼层
谢谢楼主分享
回复 支持 反对

使用道具 举报

0

主题

132

帖子

315

积分

新手上路

Rank: 1

积分
315
发表于 2022-7-10 13:00:46 | 显示全部楼层
vvvvvvvvvvvvvvvvvvvvv[qvvvvvvvvvvvvvvvvvvvvvvvv
vvvvvvvvvvvvvvvvvvvvvvvvvvvvvvvvvvvvvvvvvvvvzc
uvvvvvvvvvvvvvvvvvvv
  1. vvvvvvvvvvvvvvvvvvvvvvvvvvvvvvvvvvvvvvv
复制代码
ote]vvvvvvvvvvvvvvvvvvvvvvvvvvvvvvvvvvvvvvvvvvvv[/quote]
[url=http://www.baidianfeng51.cn/]刘云涛[/url]
回复 支持 反对

使用道具 举报

0

主题

1730

帖子

4794

积分

4K家园VIP

Rank: 9Rank: 9Rank: 9

积分
4794
发表于 2022-7-20 09:44:59 | 显示全部楼层
LZ帖子不给力,勉强给回复下吧
回复 支持 反对

使用道具 举报

47

主题

1485

帖子

4273

积分

4K家园VIP

Rank: 9Rank: 9Rank: 9

积分
4273
发表于 2022-7-24 09:59:56 来自手机 | 显示全部楼层
支持一下楼主,顶起来
回复 支持 反对

使用道具 举报

您需要登录后才可以回帖 登录 | 立即注册

本版积分规则

精彩图文
Archiver|手机版|TAG|Sitemap|新帖|专题|联系我们:邮箱: 4kjia.com@gmail.com   

4k家园   ©2019