[4K电影] 告别有情天 / The Remains of the Day (1993) 4K高清版本下载

[复制链接]

2163

主题

2306

帖子

1万

积分

超级版主

Rank: 8Rank: 8

积分
16861
 楼主| 发表于 2022-7-8 20:33:46 | 显示全部楼层 |阅读模式
告别有情天.png

◎译  名 告别有情天/长日将尽(台)/去日留痕/长日留痕
◎片  名 The Remains of the Day
◎年  代 1993
◎产  地 英国/美国
◎类  别 剧情/爱情
◎语  言 英语/德语/法语
◎上映日期 1993-11-12(英国)/1993-11-19(美国)
◎IMDb评分 7.8/10 from 73629 users
◎IMDb链接 http://www.imdb.com/title/tt0107943/
◎豆瓣评分 8.3/10 from 21138 users
◎豆瓣链接 https://movie.douban.com/subject/1293004/
◎片  长 134分钟
◎导  演 詹姆斯·伊沃里 James Ivory
◎主  演 安东尼·霍普金斯 Anthony Hopkins
       艾玛·汤普森 Emma Thompson
       詹姆斯·福克斯 James Fox
       克里斯托弗·里夫 Christopher Reeve
       休·格兰特 Hugh Grant
       皮特·沃恩 Peter Vaughan
       本·卓别林 Ben Chaplin
       阿比盖尔·霍普金斯 Abigail Hopkins
       帕特里克·戈弗雷 Patrick Godfrey
       彼得·塞利尔 Peter Cellier
       特伦斯·贝勒 Terence Bayler
       迈克尔·朗斯代尔 Michael Lonsdale
        约翰·萨维登特 John Savident
       鲁珀特·范西塔特 Rupert Vansittart
       蒂姆·皮戈特-史密斯 Tim Pigott-Smith
       琳娜·海蒂 Lena Headey
       罗·科普利 Paul Copley
       伊恩·雷德福 Ian Redford
       皮普·托伦斯 Pip Torrens
       彼得·爱 Peter Eyre
       沃尔夫·卡赫勒 Wolf Kahler
       米尔斯·理查森 Miles Richardson


◎简  介

  史蒂芬斯先生(安东尼·霍普金斯 Anthony Hopkins饰)是一个忠实的仆人,他曾经当过英国著名爵侯的管家。目前正一心一意打理新主人达林顿勋爵的公馆,成为这里的大管家。
  这里来了一个女管家基顿(艾玛·汤普森 Emma Thompson饰),她精明能干,操持起家务来比史蒂芬斯更灵活,起初斯蒂芬斯常常与她有些小矛盾。但是随着相处日子渐长,善良的基顿还是暗暗打动了史蒂芬斯。尽管基顿一再流露真情,举手投足间泄露了爱意。但是每到动情关头,史蒂芬斯都隐忍着自己的情感,对基顿的爱化作一段埋没在静默中的故事。
  基顿忍痛告别这段无果之爱,远走他乡嫁为人妇。当时光荏苒,二人再次会面,心里的爱意仍然说不出口,浓浓思念化作车站道别的一句祝福。


◎获奖情况

  第66届奥斯卡金像奖  (1994)
  最佳影片(提名) 伊斯梅尔·莫昌特 / 迈克·尼科尔斯 / 约翰·凯利
  最佳导演(提名) 詹姆斯·伊沃里
  最佳男主角(提名) 安东尼·霍普金斯
  最佳女主角(提名) 艾玛·汤普森
  最佳改编剧本(提名) 鲁丝·普罗厄·贾布瓦拉
  最佳艺术指导(提名) 露西安娜·阿瑞吉 / 伊恩·惠特克
  最佳服装设计(提名) 珍妮·碧万 / 约翰·布莱特
  最佳原创配乐(提名) 理查德·罗宾斯

  第47届英国电影学院奖  (1994)
  电影奖 最佳影片(提名) 约翰·凯利 / 伊斯梅尔·莫昌特 / 迈克·尼科尔斯 / 詹姆斯·伊沃里
  电影奖 最佳导演(提名) 詹姆斯·伊沃里
  电影奖 最佳男主角 安东尼·霍普金斯
  电影奖 最佳女主角(提名) 艾玛·汤普森
  电影奖 最佳改编剧本(提名) 鲁丝·普罗厄·贾布瓦拉
  电影奖 最佳摄影(提名) Tony Pierce-Roberts

Video
ID : 1
Format : HEVC
Format/Info : High Efficiency Video Coding
Format profile : Main@L5@Main
Codec ID : V_MPEGH/ISO/HEVC
Duration : 2 h 14 min
Bit rate : 14.7 Mb/s
Width : 3 840 pixels
Height : 1 600 pixels
Display aspect ratio : 2.40:1
Frame rate mode : Constant
Frame rate : 23.976 (24000/1001) FPS
Standard : NTSC
Color space : YUV
Chroma subsampling : 4:2:0
Bit depth : 8 bits
Bits/(Pixel*Frame) : 0.100
Stream size : 13.8 GiB (78%)
Writing library : x265 2.9_elemental+1-9e0607aa5b6f:[Linux][GCC 4.8.5][64 bit] 8bit+10bit+12bit
Encoding settings : cpuid=1111039 / frame-threads=2 / wpp / no-pmode / no-pme / psnr / ssim / log-level=2 / csv / csv-log-level=2 / input-csp=1 / input-res=3840x1600 / interlace=0 / total-frames=0 / level-idc=50 / high-tier=1 / uhd-bd=0 / ref=5 / no-allow-non-conformance / no-repeat-headers / annexb / no-aud / no-hrd / info / hash=0 / no-temporal-layers / no-open-gop / min-keyint=61 / keyint=120 / gop-lookahead=0 / bframes=8 / b-adapt=2 / b-pyramid / bframe-bias=0 / rc-lookahead=120 / lookahead-slices=4 / scenecut=0 / radl=0 / no-intra-refresh / ctu=64 / min-cu-size=8 / rect / amp / max-tu-size=32 / tu-inter-depth=4 / tu-intra-depth=4 / limit-tu=4 / rdoq-level=2 / dynamic-rd=0.00 / no-ssim-rd / signhide / tskip / nr-intra=100 / nr-inter=600 / no-constrained-intra / strong-intra-smoothing / max-merge=3 / limit-refs=3 / limit-modes / me=3 / subme=3 / merange=57 / temporal-mvp / weightp / weightb / no-analyze-src-pics / deblock=0:0 / no-sao / no-sao-non-deblock / rd=4 / no-early-skip / no-rskip / no-fast-intra / tskip-fast / no-cu-lossless / b-intra / no-splitrd-skip / rdpenalty=0 / psy-rd=4.00 / psy-rdoq=10.00 / no-rd-refine / no-lossless / cbqpoffs=0 / crqpoffs=0 / rc=crf / crf=25.0 / qcomp=0.60 / qpstep=1 / stats-write=0 / stats-read=0 / vbv-maxrate=15000 / vbv-bufsize=20000 / vbv-init=0.9 / crf-max=0.0 / crf-min=0.0 / ipratio=1.10 / pbratio=1.00 / aq-mode=0 / aq-strength=1.50 / no-cutree / zone-count=0 / no-strict-cbr / qg-size=32 / rc-grain / qpmax=69 / qpmin=0 / const-vbv / sar=1 / overscan=0 / videoformat=2 / range=0 / colorprim=1 / transfer=1 / colormatrix=1 / chromaloc=0 / display-window=0 / max-cll=0,0 / min-luma=0 / max-luma=255 / log2-max-poc-lsb=8 / vui-timing-info / vui-hrd-info / slices=1 / opt-qp-pps / no-opt-ref-list-length-pps / no-multi-pass-opt-rps / scenecut-bias=0.05 / no-opt-cu-delta-qp / no-aq-motion / no-hdr / no-hdr-opt / no-dhdr10-opt / no-idr-recovery-sei / analysis-reuse-level=5 / scale-factor=0 / refine-intra=0 / refine-inter=0 / refine-mv=0 / no-limit-sao / ctu-info=0 / no-lowpass-dct / refine-mv-type=0 / copy-pic=1 / max-ausize-factor=1.0 / no-dynamic-refine / no-single-sei
Language : English
Default : Yes
Forced : No
Color range : Limited
Color primaries : BT.709
Transfer characteristics : BT.709
Matrix coefficients : BT.709

Audio #1
ID : 2
Format : DTS XLL
Format/Info : Digital Theater Systems
Commercial name : DTS-HD Master Audio
Codec ID : A_DTS
Duration : 2 h 14 min
Bit rate mode : Variable
Bit rate : 3 570 kb/s
Channel(s) : 6 channels
Channel layout : C L R Ls Rs LFE
Sampling rate : 48.0 kHz
Frame rate : 93.750 FPS (512 SPF)
Bit depth : 24 bits
Compression mode : Lossless
Stream size : 3.35 GiB (19%)
Title : DTS-HD MA 5.1
Language : English
Default : Yes
Forced : No

Audio #2
ID : 3
Format : E-AC-3
Format/Info : Enhanced AC-3
Commercial name : Dolby Digital Plus
Codec ID : A_EAC3
Duration : 2 h 14 min
Bit rate mode : Constant
Bit rate : 640 kb/s
Channel(s) : 6 channels
Channel layout : L R C LFE Ls Rs
Sampling rate : 48.0 kHz
Frame rate : 31.250 FPS (1536 SPF)
Compression mode : Lossy
Stream size : 615 MiB (3%)
Title : DDP 5.1
Language : English
Service kind : Complete Main
Default : No
Forced : No

Text #1
ID : 4
Format : UTF-8
Codec ID : S_TEXT/UTF8
Codec ID/Info : UTF-8 Plain Text
Duration : 2 h 8 min
Bit rate : 74 b/s
Count of elements : 1686
Stream size : 69.9 KiB (0%)
Language : English
Default : Yes
Forced : No

Text #2
ID : 5
Format : UTF-8
Codec ID : S_TEXT/UTF8
Codec ID/Info : UTF-8 Plain Text
Duration : 2 h 8 min
Bit rate : 77 b/s
Count of elements : 1780
Stream size : 73.2 KiB (0%)
Title : SDH
Language : English
Default : No
Forced : No

Text #3
ID : 6
Format : PGS
Muxing mode : zlib
Codec ID : S_HDMV/PGS
Codec ID/Info : Picture based subtitle format used on BDs/HD-DVDs
Duration : 2 h 8 min
Bit rate : 58.5 kb/s
Count of elements : 3566
Stream size : 54.0 MiB (0%)
Title : SDH
Language : English
Default : No
Forced : No

Menu
00:00:00.000 : :Chapter 1
00:05:18.026 : :Chapter 2
00:11:25.894 : :Chapter 3
00:16:50.843 : :Chapter 4
00:22:56.333 : :Chapter 5
00:29:34.189 : :Chapter 6
00:35:10.984 : :Chapter 7
00:40:53.326 : :Chapter 8
00:46:08.140 : :Chapter 9
00:49:09.738 : :Chapter 10
00:57:54.304 : :Chapter 11
01:03:29.180 : :Chapter 12
01:10:10.915 : :Chapter 13
01:13:57.725 : :Chapter 14
01:19:53.956 : :Chapter 15
01:26:58.922 : :Chapter 16
01:32:52.400 : :Chapter 17
01:39:03.729 : :Chapter 18
01:43:16.399 : :Chapter 19
01:48:42.725 : :Chapter 20
01:54:41.625 : :Chapter 21
01:59:15.982 : :Chapter 22
02:07:39.569 : :Chapter 23
02:11:22.875 : :Chapter 24


资源速度为零或资源敏感被和谐时,推荐使用qBittorrent等下载软件,有条件的推荐115更好的下载软件!

下载地址:


游客,如果您要查看本帖隐藏内容请回复





上一篇:特种兵 / The Commando (2022) 4K高清版本下载
下一篇:缉毒风云 / Vikram (2022) 4K高清版本下载
回复

使用道具 举报

0

主题

1367

帖子

4115

积分

4K家园VIP

Rank: 9Rank: 9Rank: 9

积分
4115
发表于 2022-7-8 20:34:13 来自手机 | 显示全部楼层
众里寻他千百度,蓦然回首在这里!
回复 支持 反对

使用道具 举报

1

主题

1735

帖子

4815

积分

4K家园VIP

Rank: 9Rank: 9Rank: 9

积分
4815
发表于 2022-7-9 21:47:15 | 显示全部楼层
为保住菊花,这个一定得回复!
回复 支持 反对

使用道具 举报

0

主题

132

帖子

315

积分

新手上路

Rank: 1

积分
315
发表于 2022-7-10 10:44:40 | 显示全部楼层
vxcxcxcxcxcxcxcxcxcxcxcxcxcxcxcxcxcxcxcxcxcxcxcxcxcxcxcxcxcxcxcxcxcxcxcxcxcxcxcxcxcxcxcxcxcxcxcxcxcxcxcxcxcxcxcxcxcxcxcxcxcxcxcxcxcxcxcxcxcxc
xcxcxcxcxcxcxcxcxcxcxcxcxcxcxcxcxcxcxcxcxcxcxcxcxcxc
[url=http://www.baidianfeng51.cn/]刘云涛[/url]
回复 支持 反对

使用道具 举报

1

主题

1163

帖子

3509

积分

4K家园VIP

Rank: 9Rank: 9Rank: 9

积分
3509
发表于 2022-7-10 14:58:59 | 显示全部楼层
看帖要回,回帖才健康,在踩踩,楼主辛苦了!
回复 支持 反对

使用道具 举报

0

主题

3

帖子

22

积分

新手上路

Rank: 1

积分
22
发表于 2022-7-11 17:08:03 | 显示全部楼层
太好啦&萬分感謝版主的無私發佈分享%
回复 支持 反对

使用道具 举报

0

主题

5

帖子

18

积分

新手上路

Rank: 1

积分
18
发表于 2022-7-12 20:43:25 | 显示全部楼层
谢谢分享
回复

使用道具 举报

0

主题

1732

帖子

4800

积分

4K家园VIP

Rank: 9Rank: 9Rank: 9

积分
4800
发表于 2022-7-14 01:16:06 | 显示全部楼层
报告!别开枪,我就是路过来看看的。。。
回复 支持 反对

使用道具 举报

48

主题

1510

帖子

4348

积分

4K家园VIP

Rank: 9Rank: 9Rank: 9

积分
4348
发表于 2022-7-14 21:31:33 来自手机 | 显示全部楼层
这么强,支持楼主,佩服
回复 支持 反对

使用道具 举报

您需要登录后才可以回帖 登录 | 立即注册

本版积分规则

精彩图文
Archiver|手机版|TAG|Sitemap|新帖|专题|联系我们:邮箱: 4kjia.com@gmail.com   

4k家园   ©2019