[4Kjia独享4K资源] 缉毒风云 / Vikram (2022) 4K高清版本下载

[复制链接]

2163

主题

2306

帖子

1万

积分

超级版主

Rank: 8Rank: 8

积分
16861
 楼主| 发表于 2022-7-9 05:30:00 | 显示全部楼层 |阅读模式

QQ图片20220708204438_副本.png
◎译  名 缉毒风云
◎片  名 விக்ரம் / Vikram
◎年  代 2022
◎产  地 印度
◎类  别 动作 / 惊悚
◎语  言 英语
◎上映日期 2022-06-03(印度)
◎IMDb评分 8.8/10 from 26662 users
◎IMDb链接 https://www.imdb.com/title/tt9179430/
◎豆瓣评分 0/10 from 0 users
◎豆瓣链接 https://movie.douban.com/subject/35921424/
◎片  长 175 分钟
◎导  演 洛凯什·卡纳加拉杰 Lokesh Kanagaraj
◎编  剧 洛凯什·卡纳加拉杰 Lokesh Kanagaraj / 拉特那·库马尔 Rathna Kumar
◎演  员 卡马尔·哈山 Kamal Haasan
                   法哈德·法西尔 Fahadh Faasil
                   维杰·西图帕提 Vijay Sethupathi
                   纳拉因 Narain
                   卡利达斯·贾亚拉姆 Kalidas Jayaram               
                   切姆班·维诺德·何塞 Chemban Vinod Jose
                   桑塔纳·巴拉蒂 Santhana Bharathi
                   埃兰戈·库马拉维尔 Kumaravel
                   瓦桑蒂 Vasanthi
                   加雅思里 Gayathrie
                   斯瓦希斯塔 Swathista Krishnan
                   G·马里穆图 G. Marimuthu
                   拉梅什·蒂拉克 Ramesh Thilak
                  卡尔迪 Karthi
                   玛雅·S·克里希南 Maya S. Krishnan
                   苏利耶·西瓦库马 Suriya Sivakumar
                   哈里什·乌达曼 Harish Uthaman
                   安东尼·瓦尔吉斯 Antony Varghese


◎简  介



         在深入调查贩毒团伙制造的一场连环谋杀案的同时,特警Amar也察觉到更多的阴谋和疑云,和更大的危险……
Video
ID                                       : 1
Format                                   : HEVC
Format/Info                              : High Efficiency Video Coding
Format profile                           : Main [email protected]@Main
Codec ID                                 : V_MPEGH/ISO/HEVC
Duration                                 : 2 h 12 min
Bit rate                                 : 22.3 Mb/s
Width                                    : 3 840 pixels
Height                                   : 2 160 pixels
Display aspect ratio                     : 16:9
Frame rate mode                          : Constant
Frame rate                               : 24.000 FPS
Color space                              : YUV
Chroma subsampling                       : 4:2:0
Bit depth                                : 10 bits
Bits/(Pixel*Frame)                       : 0.112
Stream size                              : 20.6 GiB (95%)
Default                                  : Yes
Forced                                   : No
Color range                              : Limited
Color primaries                          : BT.2020
Transfer characteristics                 : PQ
Matrix coefficients                      : BT.2020 non-constant

Audio #1
ID                                       : 2
Format                                   : E-AC-3
Format/Info                              : Enhanced AC-3
Commercial name                          : Dolby Digital Plus
Codec ID                                 : A_EAC3
Duration                                 : 2 h 51 min
Bit rate mode                            : Constant
Bit rate                                 : 192 kb/s
Channel(s)                               : 6 channels
Channel layout                           : L R C LFE Ls Rs
Sampling rate                            : 48.0 kHz
Frame rate                               : 31.250 FPS (1536 SPF)
Compression mode                         : Lossy
Stream size                              : 235 MiB (1%)
Title                                    : Tamil
Language                                 : Tamil
Service kind                             : Complete Main
Default                                  : Yes
Forced                                   : No

Audio #2
ID                                       : 3
Format                                   : E-AC-3
Format/Info                              : Enhanced AC-3
Commercial name                          : Dolby Digital Plus
Codec ID                                 : A_EAC3
Duration                                 : 2 h 51 min
Bit rate mode                            : Constant
Bit rate                                 : 192 kb/s
Channel(s)                               : 6 channels
Channel layout                           : L R C LFE Ls Rs
Sampling rate                            : 48.0 kHz
Frame rate                               : 31.250 FPS (1536 SPF)
Compression mode                         : Lossy
Stream size                              : 235 MiB (1%)
Title                                    : Hindi
Language                                 : Hindi
Service kind                             : Complete Main
Default                                  : No
Forced                                   : No

Audio #3
ID                                       : 4
Format                                   : E-AC-3
Format/Info                              : Enhanced AC-3
Commercial name                          : Dolby Digital Plus
Codec ID                                 : A_EAC3
Duration                                 : 2 h 51 min
Bit rate mode                            : Constant
Bit rate                                 : 192 kb/s
Channel(s)                               : 6 channels
Channel layout                           : L R C LFE Ls Rs
Sampling rate                            : 48.0 kHz
Frame rate                               : 31.250 FPS (1536 SPF)
Compression mode                         : Lossy
Stream size                              : 235 MiB (1%)
Title                                    : Kannada (India)
Language                                 : Kannada
Service kind                             : Complete Main
Default                                  : No
Forced                                   : No

Audio #4
ID                                       : 5
Format                                   : E-AC-3
Format/Info                              : Enhanced AC-3
Commercial name                          : Dolby Digital Plus
Codec ID                                 : A_EAC3
Duration                                 : 2 h 51 min
Bit rate mode                            : Constant
Bit rate                                 : 192 kb/s
Channel(s)                               : 6 channels
Channel layout                           : L R C LFE Ls Rs
Sampling rate                            : 48.0 kHz
Frame rate                               : 31.250 FPS (1536 SPF)
Compression mode                         : Lossy
Stream size                              : 235 MiB (1%)
Title                                    : Malayalam
Language                                 : Malayalam
Service kind                             : Complete Main
Default                                  : No
Forced                                   : No

Audio #5
ID                                       : 6
Format                                   : E-AC-3
Format/Info                              : Enhanced AC-3
Commercial name                          : Dolby Digital Plus
Codec ID                                 : A_EAC3
Duration                                 : 2 h 51 min
Bit rate mode                            : Constant
Bit rate                                 : 192 kb/s
Channel(s)                               : 6 channels
Channel layout                           : L R C LFE Ls Rs
Sampling rate                            : 48.0 kHz
Frame rate                               : 31.250 FPS (1536 SPF)
Compression mode                         : Lossy
Stream size                              : 235 MiB (1%)
Title                                    : Telugu
Language                                 : Telugu
Service kind                             : Complete Main
Default                                  : No
Forced                                   : No
资源速度为零或资源敏感被和谐时,推荐使用qBittorrent等下载软件,有条件的推荐115更好的下载软件!

下载地址:

大小21.78GB
****此区域为收费内容****    需支付 9 金币后可查看立即购买

大小10.98GB
****此区域为收费内容****    需支付 9 金币后可查看立即购买




上一篇:告别有情天 / The Remains of the Day (1993) 4K高清版本下载
下一篇:异形大战铁血战士 / Alien Vs Predator (2004) 4K高清版本下载
回复

使用道具 举报

0

主题

1367

帖子

4115

积分

4K家园VIP

Rank: 9Rank: 9Rank: 9

积分
4115
发表于 2022-7-9 05:30:04 | 显示全部楼层
传说中的沙发???哇卡卡
回复 支持 反对

使用道具 举报

0

主题

433

帖子

2643

积分

注册会员

Rank: 2

积分
2643
发表于 2022-7-9 11:48:16 | 显示全部楼层
谢谢楼主分享
回复 支持 反对

使用道具 举报

0

主题

15

帖子

1807

积分

4K家园VIP

Rank: 9Rank: 9Rank: 9

积分
1807
发表于 2022-7-9 14:35:15 | 显示全部楼层
好东西谢谢楼主分享
回复 支持 反对

使用道具 举报

0

主题

15

帖子

1807

积分

4K家园VIP

Rank: 9Rank: 9Rank: 9

积分
1807
发表于 2022-7-9 14:35:58 | 显示全部楼层
怎么登不进去
回复 支持 反对

使用道具 举报

0

主题

15

帖子

1807

积分

4K家园VIP

Rank: 9Rank: 9Rank: 9

积分
1807
发表于 2022-7-9 14:36:21 | 显示全部楼层
要怎么下载
回复 支持 反对

使用道具 举报

0

主题

8

帖子

92

积分

4K家园VIP

Rank: 9Rank: 9Rank: 9

积分
92
发表于 2022-7-10 03:04:28 | 显示全部楼层
好东西谢谢楼主分享
回复 支持 反对

使用道具 举报

0

主题

7

帖子

1621

积分

4K家园VIP

Rank: 9Rank: 9Rank: 9

积分
1621
发表于 2022-7-10 10:45:11 | 显示全部楼层
是怎么下载的?
回复 支持 反对

使用道具 举报

37

主题

1515

帖子

4349

积分

4K家园VIP

Rank: 9Rank: 9Rank: 9

积分
4349
发表于 2022-7-13 06:02:06 来自手机 | 显示全部楼层
打酱油的人拉,回复下赚取积分
回复 支持 反对

使用道具 举报

2

主题

1428

帖子

4104

积分

4K家园VIP

Rank: 9Rank: 9Rank: 9

积分
4104
发表于 2022-7-14 12:51:19 来自手机 | 显示全部楼层
为毛老子总也抢不到沙发?!!
回复 支持 反对

使用道具 举报

您需要登录后才可以回帖 登录 | 立即注册

本版积分规则

精彩图文
Archiver|手机版|TAG|Sitemap|新帖|专题|联系我们:邮箱: 4kjia.com@gmail.com   

4k家园   ©2019