[4K电影] 异形大战铁血战士 / Alien Vs Predator (2004) 4K高清版本下载

[复制链接]

2118

主题

2259

帖子

1万

积分

超级版主

Rank: 8Rank: 8

积分
16577
 楼主| 发表于 2022-7-9 15:32:35 | 显示全部楼层 |阅读模式
QQ图片20220709151836_副本.png

◎译  名 异形大战铁血战士/异兽战(港)/异形战场(台)/异形大战捕食者
◎片  名 AVP: Alien vs. Predator
◎年  代 2004
◎产  地 美国/德国/捷克/英国
◎类  别 动作/科幻/惊悚
◎语  言 英语/意大利语
◎上映日期 2004-08-13(美国)
◎IMDb评分 5.6/10 from 196,005 users
◎IMDb链接 https://www.imdb.com/title/tt0370263/
◎豆瓣评分 6.9/10 from 59462 users
◎豆瓣链接 https://movie.douban.com/subject/1308769/
◎导  演 保罗·安德森 Paul W.S. Anderson
◎编  剧 丹·欧班农 Dan O'Bannon / 罗纳德·舒塞特 Ronald Shusett / 吉姆·托马斯 Jim Thomas / 约翰·托马斯 John Thomas / 保罗·安德森 Paul W.S. Anderson
◎主  演 桑娜·莱瑟 Sanaa Lathan
       雷欧·波瓦 Raoul Bova
       兰斯·亨利克森 Lance Henriksen
       艾文·布莱纳 Ewen Bremner
       科林·萨蒙 Colin Salmon
       汤米·弗拉纳根 Tommy Flanagan
       约瑟夫·雷耶 Joseph Rye
       阿加特·德拉·波拉耶 Agathe De La Boulaye
       卡尔斯腾·诺尔加拉德 Carsten Norgaard
       山姆·特劳顿 Sam Troughton
       彼得·雅克尔 Petr Jákl
       克瑞恩·比尤 Kieran Bew
       约瑟夫·巴德拉玛 Joseph Balderrama
       阿德里安·布薛特 Adrian Bouchet
       卡丽玛·阿德贝 Karima Adebibe
       亚历克·吉利斯 Alec Gillis
       汤姆·伍德鲁夫 Tom Woodruff Jr.
       伊恩·怀特 Ian Whyte


◎简  介


  2004年,专事搜寻矿藏的PS-12号卫星在南极洲14区探测到不明热源,并发现这里有未知文明的遗迹存在。为了抢在他人之前探明真相,PS-12所属公司老板查尔斯·比绍普·韦兰德(兰斯·亨里特森 Lance Henriksen 饰)随即召集格瑞米·米勒(埃文·布莱姆纳 Ewen Bremner 饰)、艾莉莎·伍兹(桑娜·莱瑟 Sanaa Lathan 饰)等一众科学精英组成探险队,朝着人类从未践足的布维岛挺进。
  探险队下到地下2000公尺的地洞内,杂糅了各种文明的遗迹令他们目瞪口呆。更令探险队想不到的是,在他们之外来自外星的铁血战士也盯上了这里。他们将和埋藏于此的异形进行宿命的决斗,弱小的人类探险队被迫卷入其中……

Video
ID                                       : 1
Format                                   : HEVC
Format/Info                              : High Efficiency Video Coding
Format profile                           : Main 10@L5.2@High
Codec ID                                 : V_MPEGH/ISO/HEVC
Duration                                 : 1 h 48 min
Bit rate                                 : 8 826 kb/s
Width                                    : 3 840 pixels
Height                                   : 2 160 pixels
Display aspect ratio                     : 2.35:1
Frame rate mode                          : Constant
Frame rate                               : 23.976 (24000/1001) FPS
Color space                              : YUV
Chroma subsampling                       : 4:2:0
Bit depth                                : 10 bits
Bits/(Pixel*Frame)                       : 0.044
Stream size                              : 6.70 GiB (93%)
Title                                    : Alien vs. Predator Unrated
Default                                  : Yes
Forced                                   : No
Color range                              : Limited
Color primaries                          : BT.709
Transfer characteristics                 : BT.709
Matrix coefficients                      : BT.709

Audio
ID                                       : 2
Format                                   : AC-3
Format/Info                              : Audio Coding 3
Commercial name                          : Dolby Digital
Codec ID                                 : A_AC3
Duration                                 : 1 h 48 min
Bit rate mode                            : Constant
Bit rate                                 : 640 kb/s
Channel(s)                               : 6 channels
Channel layout                           : L R C LFE Ls Rs
Sampling rate                            : 48.0 kHz
Frame rate                               : 31.250 FPS (1536 SPF)
Bit depth                                : 16 bits
Compression mode                         : Lossy
Stream size                              : 497 MiB (7%)
Title                                    : Dolby Digital 5.1
Language                                 : English
Service kind                             : Complete Main
Default                                  : Yes
Forced                                   : No

Text
ID                                       : 3
Format                                   : UTF-8
Codec ID                                 : S_TEXT/UTF8
Codec ID/Info                            : UTF-8 Plain Text
Duration                                 : 1 h 31 min
Bit rate                                 : 27 b/s
Count of elements                        : 658
Stream size                              : 18.5 KiB (0%)
Language                                 : English
Default                                  : No
Forced                                   : No


资源速度为零或资源敏感被和谐时,推荐使用qBittorrent等下载软件,有条件的推荐115更好的下载软件!

下载地址:


****此区域为收费内容****    需支付 9 金币后可查看立即购买






上一篇:缉毒风云 / Vikram (2022) 4K高清版本下载
下一篇:人鬼情未了 / Ghost (1990) 4K高清版本下载
回复

使用道具 举报

0

主题

1371

帖子

3963

积分

4K家园VIP

Rank: 9Rank: 9Rank: 9

积分
3963
发表于 2022-7-9 15:32:44 | 显示全部楼层
我只是看看啊,不说话
回复 支持 反对

使用道具 举报

58

主题

1568

帖子

4514

积分

4K家园VIP

Rank: 9Rank: 9Rank: 9

积分
4514
发表于 2022-7-9 15:32:44 来自手机 | 显示全部楼层
鼎力支持!!
回复 支持 反对

使用道具 举报

2

主题

1635

帖子

4499

积分

4K家园VIP

Rank: 9Rank: 9Rank: 9

积分
4499
发表于 2022-7-9 15:33:34 来自手机 | 显示全部楼层
前排,哇咔咔
回复 支持 反对

使用道具 举报

54

主题

1565

帖子

4469

积分

4K家园VIP

Rank: 9Rank: 9Rank: 9

积分
4469
发表于 2022-7-9 16:42:37 | 显示全部楼层
还有没有别的资源,多分享些
回复 支持 反对

使用道具 举报

0

主题

1346

帖子

4066

积分

4K家园VIP

Rank: 9Rank: 9Rank: 9

积分
4066
发表于 2022-7-9 17:45:18 | 显示全部楼层
路过 帮顶 嘿嘿
回复 支持 反对

使用道具 举报

1

主题

12

帖子

65

积分

新手上路

Rank: 1

积分
65
发表于 2022-7-9 21:43:06 | 显示全部楼层
谢谢楼主分享
回复 支持 反对

使用道具 举报

1

主题

12

帖子

65

积分

新手上路

Rank: 1

积分
65
发表于 2022-7-9 22:21:40 | 显示全部楼层
谢谢楼主分享
回复 支持 反对

使用道具 举报

1

主题

12

帖子

65

积分

新手上路

Rank: 1

积分
65
发表于 2022-7-9 22:21:50 | 显示全部楼层
谢谢楼主分享好电影
回复 支持 反对

使用道具 举报

0

主题

10

帖子

35

积分

新手上路

Rank: 1

积分
35
发表于 2022-7-11 11:23:19 | 显示全部楼层
金币我需要金币
回复 支持 反对

使用道具 举报

您需要登录后才可以回帖 登录 | 立即注册

本版积分规则

精彩图文
Archiver|手机版|TAG|Sitemap|新帖|专题|联系我们:邮箱: 4kjia.com@gmail.com   

4k家园   ©2019