[4K电影] 大卫·科波菲尔的个人史 / David Copperfield (2019) 4K高清版本下载

[复制链接]

2118

主题

2259

帖子

1万

积分

超级版主

Rank: 8Rank: 8

积分
16577
 楼主| 发表于 2022-7-9 21:12:10 | 显示全部楼层 |阅读模式
QQ图片20220709204713_副本.png

◎译  名 大卫·科波菲尔的个人史/狄更斯之块肉余生记(台)/David Copperfield
◎片  名 The Personal History of David Copperfield
◎年  代 2019
◎产  地 英国/美国
◎类  别 剧情
◎语  言 英语
◎上映日期 2019-09-05(多伦多电影节)/2020-01-10(英国)/2020-08-28(美国)
◎IMDb评分 6.4/10 from 19514 users
◎IMDb链接 https://www.imdb.com/title/tt6439020/
◎豆瓣评分 6.3/10 from 1676 users
◎豆瓣链接 https://movie.douban.com/subject/30139659/
◎导  演 阿尔曼多·伊安努奇 Armando Iannucci
◎编  剧 西蒙·布莱克维尔 Simon Blackwell / 查尔斯·狄更斯 Charles Dickens / 阿尔曼多·伊安努奇 Armando Iannucci
◎主  演 戴夫·帕特尔 Dev Patel
       蒂尔达·斯文顿 Tilda Swinton
       休·劳瑞 Hugh Laurie
       本·卫肖 Ben Whishaw
       彼得·卡帕尔迪 Peter Capaldi
       阿奈林·巴纳德 Aneurin Barnard
       格温多兰·克里斯蒂 Gwendoline Christie
       本尼迪克特·王 Benedict Wong
       莫菲德·克拉克 Morfydd Clark
       安东尼·威尔士 Anthony Welsh
       罗莎琳德·以利亚撒 Rosalind Eleazar
       保罗·怀特豪斯 Paul Whitehouse
       黛西·梅·库珀 Daisy May Cooper
       鲁比·本特尔 Ruby Bentall
       达伦·博伊德 Darren Boyd
       斯甘皮 Scampi

◎简  介

  本片是对英国文学家查尔斯·狄更斯半自传著作全新而独特的诠释。故事发生在19世纪,著名的主人公——大卫·科波菲尔在乱世中艰难寻找属于自己的角落。从他不快乐的童年开始,到他发现自己的写作天赋,大卫的人生之旅在欢笑和悲剧中交替,却总是充满着生命力、色彩和人性之光。影片阵容华丽,由戴夫·帕特尔、蒂尔达·斯文顿、休·劳瑞、本·卫肖、彼得·卡帕尔迪等一众英国本土标志性影人联袂出演。用一出盛大华丽的舞台剧全新演绎批判现实主义,向世界文坛举足轻重的文学大家致敬,从当下出发,和一百多年前广阔激荡的年代进行一场跨越时空的对话。

◎获奖情况

  第78届金球奖(2021)
  电影类 音乐/喜剧片最佳男主角(提名)

  第73届英国电影学院奖(2020)
  电影奖 最佳选角(提名)

  第33届欧洲电影奖(2020)
  最佳美术设计

  第26届美国评论家选择电影奖(2021)
  最佳美术指导(提名)
  最佳服装设计(提名)

  第22届英国独立电影奖(2019)
  最佳英国独立电影(提名)

  最佳编剧
  最佳男主角(提名)
  最佳女配角(提名)
  最佳男配角
  最佳选角
  最佳摄影(提名)
  最佳服装设计
  最佳剪辑(提名)
  最佳化妆与发型设计(提名)
  最佳艺术指导

  第25届金卫星奖(2021)
  电影部门 最佳喜剧/音乐片(提名)
  电影部门 喜剧/音乐片最佳男主角(提名)
  电影部门 最佳美术指导(提名)
  电影部门 最佳服装设计(提名)

Video
ID : 1
Format : HEVC
Format/Info : High Efficiency Video Coding
Format profile : Main 10@L5@High
HDR format : SMPTE ST 2086, HDR10 compatible
Codec ID : V_MPEGH/ISO/HEVC
Duration : 1 h 59 min
Bit rate : 14.3 Mb/s
Width : 3 840 pixels
Height : 1 608 pixels
Display aspect ratio : 2.40:1
Frame rate mode : Constant
Frame rate : 23.976 FPS
Color space : YUV
Chroma subsampling : 4:2:0 (Type 2)
Bit depth : 10 bits
Bits/(Pixel*Frame) : 0.097
Stream size : 11.9 GiB (80%)
Default : Yes
Forced : No
Color range : Limited
Color primaries : BT.2020
Transfer characteristics : PQ
Matrix coefficients : BT.2020 non-constant
Mastering display color primaries : BT.2020
Mastering display luminance : min: 0.0050 cd/m2, max: 1000 cd/m2
Maximum Content Light Level : 1769 cd/m2
Maximum Frame-Average Light Level : 405 cd/m2

Audio #1
ID : 2
Format : DTS XLL
Format/Info : Digital Theater Systems
Commercial name : DTS-HD Master Audio
Codec ID : A_DTS
Duration : 1 h 59 min
Bit rate mode : Variable
Bit rate : 3 230 kb/s
Channel(s) : 6 channels
Channel layout : C L R Ls Rs LFE
Sampling rate : 48.0 kHz
Frame rate : 93.750 FPS (512 SPF)
Bit depth : 24 bits
Compression mode : Lossless
Delay relative to video : 6 ms
Stream size : 2.70 GiB (18%)
Title : DTS-HD MA 5.1
Language : English
Default : Yes
Forced : No

Audio #2
ID : 3
Format : AC-3
Format/Info : Audio Coding 3
Commercial name : Dolby Digital
Codec ID : A_AC3
Duration : 1 h 59 min
Bit rate mode : Constant
Bit rate : 384 kb/s
Channel(s) : 6 channels
Channel layout : L R C LFE Ls Rs
Sampling rate : 48.0 kHz
Frame rate : 31.250 FPS (1536 SPF)
Compression mode : Lossy
Stream size : 328 MiB (2%)
Title : DD 5.1
Language : English
Service kind : Complete Main
Default : No
Forced : No

Text #1
ID : 4
Format : UTF-8
Codec ID : S_TEXT/UTF8
Codec ID/Info : UTF-8 Plain Text
Duration : 1 h 58 min
Bit rate : 89 b/s
Count of elements : 2689
Stream size : 78.2 KiB (0%)
Title : English CC
Language : English
Default : Yes
Forced : No

Text #2
ID : 5
Format : UTF-8
Codec ID : S_TEXT/UTF8
Codec ID/Info : UTF-8 Plain Text
Duration : 1 h 58 min
Bit rate : 74 b/s
Count of elements : 2182
Stream size : 64.6 KiB (0%)
Title : Spanish Latin American
Language : Spanish
Default : No
Forced : No

Text #3
ID : 6
Format : UTF-8
Codec ID : S_TEXT/UTF8
Codec ID/Info : UTF-8 Plain Text
Duration : 1 h 58 min
Bit rate : 84 b/s
Count of elements : 2226
Stream size : 73.5 KiB (0%)
Title : French European
Language : French
Default : No
Forced : No

Text #4
ID : 7
Format : PGS
Muxing mode : zlib
Codec ID : S_HDMV/PGS
Codec ID/Info : Picture based subtitle format used on BDs/HD-DVDs
Duration : 1 h 58 min
Bit rate : 49.4 kb/s
Count of elements : 3886
Stream size : 41.9 MiB (0%)
Title : English (SDH)
Language : English
Default : No
Forced : No

Menu
00:00:00.000 : en:Chapter 01
00:06:21.381 : en:Chapter 02
00:13:32.937 : en:Chapter 03
00:17:38.600 : en:Chapter 04
00:30:31.331 : en:Chapter 05
00:39:55.353 : en:Chapter 06
00:44:19.534 : en:Chapter 07
00:54:45.702 : en:Chapter 08
01:00:14.239 : en:Chapter 09
01:03:25.889 : en:Chapter 10
01:08:54.843 : en:Chapter 11
01:12:09.704 : en:Chapter 12
01:15:32.824 : en:Chapter 13
01:23:34.305 : en:Chapter 14
01:29:09.766 : en:Chapter 15
01:31:58.977 : en:Chapter 16
01:38:58.021 : en:Chapter 17
01:41:48.400 : en:Chapter 18
01:46:57.500 : en:Chapter 19
01:53:10.373 : en:Chapter 20
01:56:13.556 : en:Chapter 21

资源速度为零或资源敏感被和谐时,推荐使用qBittorrent等下载软件,有条件的推荐115更好的下载软件!

下载地址:


游客,如果您要查看本帖隐藏内容请回复

游客,如果您要查看本帖隐藏内容请回复

游客,如果您要查看本帖隐藏内容请回复


相关4K高清版本链接:[4K首发资源]大卫·科波菲尔的个人史 (2019) 4K高清下载/8.47GB





上一篇:人鬼情未了 / Ghost (1990) 4K高清版本下载
下一篇:唐人街 [繁粤中字] / Chinatown (1974) 4K高清版本下载
回复

使用道具 举报

59

主题

1569

帖子

4503

积分

4K家园VIP

Rank: 9Rank: 9Rank: 9

积分
4503
发表于 2022-7-9 21:12:14 来自手机 | 显示全部楼层
好帖必须得顶起
回复 支持 反对

使用道具 举报

52

主题

1483

帖子

4279

积分

4K家园VIP

Rank: 9Rank: 9Rank: 9

积分
4279
发表于 2022-7-13 15:49:06 | 显示全部楼层
好,很好,非常好!
回复 支持 反对

使用道具 举报

1

主题

1364

帖子

4120

积分

4K家园VIP

Rank: 9Rank: 9Rank: 9

积分
4120
发表于 2022-7-15 05:50:20 | 显示全部楼层
前排支持下
回复 支持 反对

使用道具 举报

3

主题

1716

帖子

4742

积分

4K家园VIP

Rank: 9Rank: 9Rank: 9

积分
4742
发表于 2022-7-15 18:59:12 | 显示全部楼层
不错 支持一个了
回复 支持 反对

使用道具 举报

67

主题

1559

帖子

4495

积分

4K家园VIP

Rank: 9Rank: 9Rank: 9

积分
4495
发表于 2022-7-18 20:48:26 | 显示全部楼层
体验下4K版的
回复 支持 反对

使用道具 举报

您需要登录后才可以回帖 登录 | 立即注册

本版积分规则

精彩图文
Archiver|手机版|TAG|Sitemap|新帖|专题|联系我们:邮箱: 4kjia.com@gmail.com   

4k家园   ©2019