外星生命 [简繁中字] (2019) 第一、二季全/ 4K高清版本下载

[复制链接]

194

主题

217

帖子

2109

积分

版主

Rank: 7Rank: 7Rank: 7

积分
2109
 楼主| 发表于 2022-7-12 12:55:37 | 显示全部楼层 |阅读模式
本帖最后由 没完没了 于 2022-7-12 13:21 编辑

p2562107437_副本_副本.jpg p2688776195_副本_副本.jpg

◎译  名 外星生命 / 天外寻源(港) / 异星空间(台)
◎片  名 Another Life
◎年  代 2019
◎产  地 美国
◎类  别 剧情 / 科幻
◎语  言 英语
◎上映日期 2019-07-25(美国)
◎IMDb评分  5.2/10 from 35446 users
◎IMDb链接  https://www.imdb.com/title/tt8369840/
◎豆瓣评分 5.3/10 from 810 users
◎豆瓣链接 https://movie.douban.com/subject/30206536/
◎片  长 60分钟
◎集  数    10
◎导  演    奥马尔·马德哈 Omar Madha
◎编  剧    杰姬·梅 Jackie May / Aaron Martin
◎主  演 凯缇·萨克霍夫 Katee Sackhoff
       塞尔玛·布莱尔 Selma Blair
       塞缪尔·安德森 Samuel Anderson
       泰勒·霍奇林 Tyler Hoechlin
       贾斯汀·查特文 Justin Chatwin
       伊丽莎白·卢德洛 Elizabeth Ludlow


◎简  介


  一件神秘的外星文物在地球登陆后,尼可·布雷肯里奇指挥官(凯蒂·萨克沃夫饰)必须带领人类首次的星际任务,抵达其发源星球,同时她的丈夫(贾斯汀·查特文饰)则留守地球并努力与该文物进行首次接触。 《外星生命》探索生命的奇迹,刻划在一个几乎毫无生命存在的宇宙,生命是如何宝贵,也描绘为了保护所爱,我们会如何竭心尽力。

Video
ID : 1
Format : HEVC
Format/Info : High Efficiency Video Coding
Format profile : Main 10@L5@Main
HDR format : SMPTE ST 2086, HDR10 compatible
Codec ID : V_MPEGH/ISO/HEVC
Duration : 46 min 34 s
Bit rate : 15.5 Mb/s
Width : 3 840 pixels
Height : 2 160 pixels
Display aspect ratio : 16:9
Frame rate mode : Constant
Frame rate : 23.976 (24000/1001) FPS
Color space : YUV
Chroma subsampling : 4:2:0 (Type 2)
Bit depth : 10 bits
Bits/(Pixel*Frame) : 0.078
Stream size : 5.03 GiB (95%)
Default : Yes
Forced : No
Color range : Limited
Color primaries : BT.2020
Transfer characteristics : PQ
Matrix coefficients : BT.2020 non-constant
Mastering display color primaries : Display P3
Mastering display luminance : min: 0.0001 cd/m2, max: 1000 cd/m2
Maximum Content Light Level : 1173 cd/m2
Maximum Frame-Average Light Level : 268 cd/m2

Audio
ID : 2
Format : E-AC-3 JOC
Format/Info : Enhanced AC-3 with Joint Object Coding
Commercial name : Dolby Digital Plus with Dolby Atmos
Codec ID : A_EAC3
Duration : 47 min 51 s
Bit rate mode : Constant
Bit rate : 768 kb/s
Channel(s) : 6 channels
Channel layout : L R C LFE Ls Rs
Sampling rate : 48.0 kHz
Frame rate : 31.250 FPS (1536 SPF)
Compression mode : Lossy
Stream size : 263 MiB (5%)
Language : English
Service kind : Complete Main
Default : Yes
Forced : No
Complexity index : 16
Number of dynamic objects : 15
Bed channel count : 1 channel
Bed channel configuration : LFE

Text #1
ID : 3
Format : UTF-8
Codec ID : S_TEXT/UTF8
Codec ID/Info : UTF-8 Plain Text
Duration : 44 min 38 s
Bit rate : 64 b/s
Frame rate : 0.242 FPS
Count of elements : 647
Stream size : 21.2 KiB (0%)
Title : [CC]
Language : English
Default : No
Forced : No

Text #2
ID : 4
Format : UTF-8
Codec ID : S_TEXT/UTF8
Codec ID/Info : UTF-8 Plain Text
Duration : 46 min 18 s
Bit rate : 92 b/s
Frame rate : 0.198 FPS
Count of elements : 549
Stream size : 31.3 KiB (0%)
Language : Arabic
Default : No
Forced : No

Text #3
ID : 5
Format : UTF-8
Codec ID : S_TEXT/UTF8
Codec ID/Info : UTF-8 Plain Text
Duration : 46 min 18 s
Bit rate : 51 b/s
Frame rate : 0.192 FPS
Count of elements : 533
Stream size : 17.5 KiB (0%)
Language : Czech
Default : No
Forced : No

Text #4
ID : 6
Format : UTF-8
Codec ID : S_TEXT/UTF8
Codec ID/Info : UTF-8 Plain Text
Duration : 46 min 18 s
Bit rate : 48 b/s
Frame rate : 0.179 FPS
Count of elements : 498
Stream size : 16.4 KiB (0%)
Language : Danish
Default : No
Forced : No

Text #5
ID : 7
Format : UTF-8
Codec ID : S_TEXT/UTF8
Codec ID/Info : UTF-8 Plain Text
Duration : 46 min 18 s
Bit rate : 50 b/s
Frame rate : 0.192 FPS
Count of elements : 533
Stream size : 17.1 KiB (0%)
Language : German
Default : No
Forced : No

Text #6
ID : 8
Format : UTF-8
Codec ID : S_TEXT/UTF8
Codec ID/Info : UTF-8 Plain Text
Duration : 46 min 18 s
Bit rate : 87 b/s
Frame rate : 0.182 FPS
Count of elements : 505
Stream size : 29.6 KiB (0%)
Language : Greek
Default : No
Forced : No

Text #7
ID : 9
Format : UTF-8
Codec ID : S_TEXT/UTF8
Codec ID/Info : UTF-8 Plain Text
Duration : 46 min 18 s
Bit rate : 49 b/s
Frame rate : 0.194 FPS
Count of elements : 539
Stream size : 16.9 KiB (0%)
Language : Spanish
Default : No
Forced : No

Text #8
ID : 10
Format : UTF-8
Codec ID : S_TEXT/UTF8
Codec ID/Info : UTF-8 Plain Text
Duration : 46 min 18 s
Bit rate : 48 b/s
Frame rate : 0.188 FPS
Count of elements : 522
Stream size : 16.6 KiB (0%)
Title : European
Language : Spanish
Default : No
Forced : No

Text #9
ID : 11
Format : UTF-8
Codec ID : S_TEXT/UTF8
Codec ID/Info : UTF-8 Plain Text
Duration : 46 min 18 s
Bit rate : 43 b/s
Frame rate : 0.139 FPS
Count of elements : 386
Stream size : 14.8 KiB (0%)
Language : Finnish
Default : No
Forced : No

Text #10
ID : 12
Format : UTF-8
Codec ID : S_TEXT/UTF8
Codec ID/Info : UTF-8 Plain Text
Duration : 46 min 18 s
Bit rate : 46 b/s
Frame rate : 0.188 FPS
Count of elements : 522
Stream size : 15.9 KiB (0%)
Language : French
Default : No
Forced : No

Text #11
ID : 13
Format : UTF-8
Codec ID : S_TEXT/UTF8
Codec ID/Info : UTF-8 Plain Text
Duration : 46 min 18 s
Bit rate : 84 b/s
Frame rate : 0.194 FPS
Count of elements : 539
Stream size : 28.6 KiB (0%)
Language : Hebrew
Default : No
Forced : No

Text #12
ID : 14
Format : UTF-8
Codec ID : S_TEXT/UTF8
Codec ID/Info : UTF-8 Plain Text
Duration : 46 min 18 s
Bit rate : 45 b/s
Frame rate : 0.194 FPS
Count of elements : 539
Stream size : 15.4 KiB (0%)
Language : Croatian
Default : No
Forced : No

Text #13
ID : 15
Format : UTF-8
Codec ID : S_TEXT/UTF8
Codec ID/Info : UTF-8 Plain Text
Duration : 46 min 18 s
Bit rate : 49 b/s
Frame rate : 0.193 FPS
Count of elements : 537
Stream size : 16.8 KiB (0%)
Language : Hungarian
Default : No
Forced : No

Text #14
ID : 16
Format : UTF-8
Codec ID : S_TEXT/UTF8
Codec ID/Info : UTF-8 Plain Text
Duration : 46 min 18 s
Bit rate : 50 b/s
Frame rate : 0.195 FPS
Count of elements : 542
Stream size : 17.3 KiB (0%)
Language : Indonesian
Default : No
Forced : No

Text #15
ID : 17
Format : UTF-8
Codec ID : S_TEXT/UTF8
Codec ID/Info : UTF-8 Plain Text
Duration : 46 min 18 s
Bit rate : 48 b/s
Frame rate : 0.189 FPS
Count of elements : 524
Stream size : 16.5 KiB (0%)
Language : Italian
Default : No
Forced : No

Text #16
ID : 18
Format : UTF-8
Codec ID : S_TEXT/UTF8
Codec ID/Info : UTF-8 Plain Text
Duration : 46 min 18 s
Bit rate : 46 b/s
Frame rate : 0.202 FPS
Count of elements : 561
Stream size : 15.8 KiB (0%)
Language : Japanese
Default : No
Forced : No

Text #17
ID : 19
Format : UTF-8
Codec ID : S_TEXT/UTF8
Codec ID/Info : UTF-8 Plain Text
Duration : 46 min 18 s
Bit rate : 69 b/s
Frame rate : 0.200 FPS
Count of elements : 556
Stream size : 23.4 KiB (0%)
Language : Korean
Default : No
Forced : No

Text #18
ID : 20
Format : UTF-8
Codec ID : S_TEXT/UTF8
Codec ID/Info : UTF-8 Plain Text
Duration : 46 min 18 s
Bit rate : 49 b/s
Frame rate : 0.191 FPS
Count of elements : 530
Stream size : 16.7 KiB (0%)
Language : Malay
Default : No
Forced : No

Text #19
ID : 21
Format : UTF-8
Codec ID : S_TEXT/UTF8
Codec ID/Info : UTF-8 Plain Text
Duration : 46 min 18 s
Bit rate : 46 b/s
Frame rate : 0.169 FPS
Count of elements : 470
Stream size : 15.8 KiB (0%)
Language : Norwegian Bokmal
Default : No
Forced : No

Text #20
ID : 22
Format : UTF-8
Codec ID : S_TEXT/UTF8
Codec ID/Info : UTF-8 Plain Text
Duration : 46 min 18 s
Bit rate : 48 b/s
Frame rate : 0.168 FPS
Count of elements : 468
Stream size : 16.4 KiB (0%)
Language : Dutch
Default : No
Forced : No

Text #21
ID : 23
Format : UTF-8
Codec ID : S_TEXT/UTF8
Codec ID/Info : UTF-8 Plain Text
Duration : 46 min 20 s
Bit rate : 45 b/s
Frame rate : 0.191 FPS
Count of elements : 531
Stream size : 15.5 KiB (0%)
Language : Polish
Default : No
Forced : No

Text #22
ID : 24
Format : UTF-8
Codec ID : S_TEXT/UTF8
Codec ID/Info : UTF-8 Plain Text
Duration : 46 min 18 s
Bit rate : 49 b/s
Frame rate : 0.186 FPS
Count of elements : 517
Stream size : 16.9 KiB (0%)
Language : Portuguese
Default : No
Forced : No

Text #23
ID : 25
Format : UTF-8
Codec ID : S_TEXT/UTF8
Codec ID/Info : UTF-8 Plain Text
Duration : 46 min 18 s
Bit rate : 50 b/s
Frame rate : 0.191 FPS
Count of elements : 532
Stream size : 17.0 KiB (0%)
Title : Brazilian
Language : Portuguese
Default : No
Forced : No

Text #24
ID : 26
Format : UTF-8
Codec ID : S_TEXT/UTF8
Codec ID/Info : UTF-8 Plain Text
Duration : 46 min 18 s
Bit rate : 57 b/s
Frame rate : 0.187 FPS
Count of elements : 519
Stream size : 19.7 KiB (0%)
Language : Romanian
Default : No
Forced : No

Text #25
ID : 27
Format : UTF-8
Codec ID : S_TEXT/UTF8
Codec ID/Info : UTF-8 Plain Text
Duration : 46 min 18 s
Bit rate : 82 b/s
Frame rate : 0.191 FPS
Count of elements : 532
Stream size : 28.0 KiB (0%)
Language : Russian
Default : No
Forced : No

Text #26
ID : 28
Format : UTF-8
Codec ID : S_TEXT/UTF8
Codec ID/Info : UTF-8 Plain Text
Duration : 46 min 18 s
Bit rate : 50 b/s
Frame rate : 0.165 FPS
Count of elements : 459
Stream size : 17.1 KiB (0%)
Language : Swedish
Default : No
Forced : No

Text #27
ID : 29
Format : UTF-8
Codec ID : S_TEXT/UTF8
Codec ID/Info : UTF-8 Plain Text
Duration : 46 min 18 s
Bit rate : 151 b/s
Frame rate : 0.195 FPS
Count of elements : 543
Stream size : 51.5 KiB (0%)
Language : Thai
Default : No
Forced : No

Text #28
ID : 30
Format : UTF-8
Codec ID : S_TEXT/UTF8
Codec ID/Info : UTF-8 Plain Text
Duration : 46 min 18 s
Bit rate : 52 b/s
Frame rate : 0.186 FPS
Count of elements : 516
Stream size : 17.6 KiB (0%)
Language : Turkish
Default : No
Forced : No

Text #29
ID : 31
Format : UTF-8
Codec ID : S_TEXT/UTF8
Codec ID/Info : UTF-8 Plain Text
Duration : 46 min 18 s
Bit rate : 66 b/s
Frame rate : 0.194 FPS
Count of elements : 538
Stream size : 22.7 KiB (0%)
Language : Vietnamese
Default : No
Forced : No

Text #30
ID : 32
Format : UTF-8
Codec ID : S_TEXT/UTF8
Codec ID/Info : UTF-8 Plain Text
Duration : 46 min 18 s
Bit rate : 55 b/s
Frame rate : 0.195 FPS
Count of elements : 543
Stream size : 18.7 KiB (0%)
Title : 中文(简体)
Language : 中文
Default : No
Forced : No

Text #31
ID : 33
Format : UTF-8
Codec ID : S_TEXT/UTF8
Codec ID/Info : UTF-8 Plain Text
Duration : 46 min 18 s
Bit rate : 53 b/s
Frame rate : 0.196 FPS
Count of elements : 545
Stream size : 18.1 KiB (0%)
Title : 中文(繁体)
Language : 中文
Default : No
Forced : No

下载地址:

第一季
游客,如果您要查看本帖隐藏内容请回复


第二季
游客,如果您要查看本帖隐藏内容请回复

游客,如果您要查看本帖隐藏内容请回复





上一篇:星际迷航:奇异新世界(2022) 第一季/10集全/ 4K高清版本下载
下一篇:生物黑客 [简繁中字] (2020) 第一、二季全/ 4K高清版本下载
回复

使用道具 举报

0

主题

1732

帖子

4800

积分

4K家园VIP

Rank: 9Rank: 9Rank: 9

积分
4800
发表于 2022-7-12 12:55:47 | 显示全部楼层
楼主呀,,,您太有才了。。。
回复 支持 反对

使用道具 举报

2

主题

1358

帖子

4090

积分

4K家园VIP

Rank: 9Rank: 9Rank: 9

积分
4090
发表于 2022-7-12 13:09:50 | 显示全部楼层
鄙视楼下的顶帖没我快,哈哈
回复 支持 反对

使用道具 举报

2

主题

1656

帖子

4510

积分

4K家园VIP

Rank: 9Rank: 9Rank: 9

积分
4510
发表于 2022-7-12 13:23:19 | 显示全部楼层
楼下的接上
回复 支持 反对

使用道具 举报

1

主题

1352

帖子

4074

积分

4K家园VIP

Rank: 9Rank: 9Rank: 9

积分
4074
发表于 2022-7-12 13:30:07 | 显示全部楼层
撸过
回复 支持 反对

使用道具 举报

1

主题

1367

帖子

4117

积分

4K家园VIP

Rank: 9Rank: 9Rank: 9

积分
4117
发表于 2022-7-12 13:31:01 | 显示全部楼层
支持一下楼主发表的内容
回复 支持 反对

使用道具 举报

0

主题

8337

帖子

1万

积分

4K家园VIP

Rank: 9Rank: 9Rank: 9

积分
19388
发表于 2022-7-13 12:08:30 | 显示全部楼层
太好啦&萬分感謝版主的無私發佈分享%
回复 支持 反对

使用道具 举报

您需要登录后才可以回帖 登录 | 立即注册

本版积分规则

精彩图文
Archiver|手机版|TAG|Sitemap|新帖|专题|联系我们:邮箱: 4kjia.com@gmail.com   

4k家园   ©2019