[4K电影] 开心汉堡店 / Bob's Burgers: The Movie (2022) 4K高清版本下载

[复制链接]

2163

主题

2306

帖子

1万

积分

超级版主

Rank: 8Rank: 8

积分
16861
 楼主| 发表于 2022-7-12 13:44:30 | 显示全部楼层 |阅读模式
本帖最后由 最爱4K哟 于 2022-7-12 13:56 编辑

QQ图片20220712134154_副本.png

◎标  题 开心汉堡店
◎译  名 开心汉堡店电影版
◎片  名 Bob's Burgers: The Movie
◎年  代 2022
◎产  地 美国
◎类  别 喜剧 / 动画 / 歌舞 / 冒险
◎语  言 英语 / 德语
◎上映日期 2022-05-27(美国)
◎IMDb评分 7.4/10 from 5587 users
◎IMDb链接 https://www.imdb.com/title/tt7466442/
◎豆瓣评分   7.3/10 from 151 users
◎豆瓣链接 https://movie.douban.com/subject/27162630/
◎导  演 劳伦·布查德 Loren Bouchard / 伯纳德·德里曼 Bernard Derriman
◎编  剧 劳伦·布查德 Loren Bouchard / 诺拉·史密斯 Nora Smith / 吉姆·达特里夫 Jim Dauterive
◎演  员 H·乔恩·本杰明 H. Jon Benjamin
       约翰·罗伯茨 John Roberts
       丹·明茨 Dan Mintz
       尤金·米尔曼 Eugene Mirman
       克里斯汀·沙尔 Kristen Schaal
       大卫·韦恩 David Wain
       扎克·加利凡纳基斯 Zach Galifianakis
       凯文·克莱恩 Kevin Kline
       拉里·墨菲 Larry Murphy
       盖瑞·科尔 Gary Cole
       保罗·F·汤普金斯 Paul F. Tompkins
       约翰·Q·库宾 John Q. Kubin
       尼克·克罗尔 Nick Kroll
       克雷格·安东 Craig Anton
       大卫·赫尔曼 David Herman
       杰米·莫耶 Jaime Moyer
       布莱恩·赫斯基 Brian Huskey
       斯蒂芬妮·比翠丝 Stephanie Beatriz
       乔丹·皮尔 Jordan Peele
       罗布·许贝尔 Rob Huebel
       帕维什·齐纳 Parvesh Cheena
       妮可·拜尔 Nicole Byer
       罗伯特·本·加兰特 Robert Ben Garant
       劳拉·希尔维曼 Laura Silverman
       阿兹·安萨里 Aziz Ansari
       山姆·塞德 Sam Seder
       保罗·路德 Paul Rudd
       珍妮·斯蕾特 Jenny Slate
       萨拉·西尔弗曼 Sarah Silverman
       阿什利·妮可·布莱克 Ashley Nicole Black
       布鲁克·迪尔曼 Brooke Dillman
       劳伦·布查德 Loren Bouchard
       凯蒂·克朗 Katie Crown
       菲尔·拉马 Phil LaMarr
       本·普罗斯基 Ben Pronsky
       米歇尔·拉夫 Michelle Ruff



◎简  介


  本片为热门动画《开心汉堡店》的电影版。
故事围绕一家名为“鲍勃汉堡店”的餐厅展开,讲述店主鲍勃一家和邻里之间的有趣故事。这次他们遇到了大麻烦,汉堡店门口塌陷出大坑,鲍勃和琳达还得继续维持餐厅的生意。与此同时,孩子们也正试图揭开一个能帮助挽救自家餐厅的谜题。
Video
ID : 1
Format : HEVC
Format/Info : High Efficiency Video Coding
Format profile : Main 10@L5@High
HDR format : SMPTE ST 2086, HDR10 compatible
Codec ID : V_MPEGH/ISO/HEVC
Duration : 1 h 41 min
Bit rate : 23.6 Mb/s
Width : 3 840 pixels
Height : 1 608 pixels
Display aspect ratio : 2.40:1
Frame rate mode : Constant
Frame rate : 23.976 FPS
Color space : YUV
Chroma subsampling : 4:2:0 (Type 2)
Bit depth : 10 bits
Bits/(Pixel*Frame) : 0.160
Stream size : 16.8 GiB (85%)
Default : Yes
Forced : No
Color range : Limited
Color primaries : BT.2020
Transfer characteristics : PQ
Matrix coefficients : BT.2020 non-constant
Mastering display color primaries : BT.2020
Mastering display luminance : min: 0.0050 cd/m2, max: 1000 cd/m2
Maximum Content Light Level : 890 cd/m2
Maximum Frame-Average Light Level : 170 cd/m2

Audio #1
ID : 2
Format : DTS XLL
Format/Info : Digital Theater Systems
Commercial name : DTS-HD Master Audio
Codec ID : A_DTS
Duration : 1 h 41 min
Bit rate mode : Variable
Bit rate : 3 558 kb/s
Channel(s) : 6 channels
Channel layout : C L R Ls Rs LFE
Sampling rate : 48.0 kHz
Frame rate : 93.750 FPS (512 SPF)
Bit depth : 24 bits
Compression mode : Lossless
Stream size : 2.53 GiB (13%)
Title : DTS-HD MA 5.1
Language : English
Default : Yes
Forced : No

Audio #2
ID : 3
Format : AC-3
Format/Info : Audio Coding 3
Commercial name : Dolby Digital
Codec ID : A_AC3
Duration : 1 h 41 min
Bit rate mode : Constant
Bit rate : 384 kb/s
Channel(s) : 6 channels
Channel layout : L R C LFE Ls Rs
Sampling rate : 48.0 kHz
Frame rate : 31.250 FPS (1536 SPF)
Compression mode : Lossy
Stream size : 280 MiB (1%)
Title : DD 5.1
Language : English
Service kind : Complete Main
Default : No
Forced : No

Text #1
ID : 4
Format : UTF-8
Codec ID : S_TEXT/UTF8
Codec ID/Info : UTF-8 Plain Text
Duration : 1 h 40 min
Bit rate : 117 b/s
Frame rate : 0.462 FPS
Count of elements : 2787
Stream size : 86.5 KiB (0%)
Language : English
Default : Yes
Forced : No

Text #2
ID : 5
Format : UTF-8
Codec ID : S_TEXT/UTF8
Codec ID/Info : UTF-8 Plain Text
Duration : 1 h 41 min
Bit rate : 125 b/s
Frame rate : 0.479 FPS
Count of elements : 2925
Stream size : 93.5 KiB (0%)
Title : SDH
Language : English
Default : No
Forced : No

Text #3
ID : 6
Format : PGS
Muxing mode : zlib
Codec ID : S_HDMV/PGS
Codec ID/Info : Picture based subtitle format used on BDs/HD-DVDs
Duration : 1 h 41 min
Bit rate : 81.6 kb/s
Frame rate : 0.960 FPS
Count of elements : 5860
Stream size : 59.4 MiB (0%)
Language : English
Default : No
Forced : No

Text #4
ID : 7
Format : PGS
Muxing mode : zlib
Codec ID : S_HDMV/PGS
Codec ID/Info : Picture based subtitle format used on BDs/HD-DVDs
Duration : 1 h 41 min
Bit rate : 87.3 kb/s
Frame rate : 0.709 FPS
Count of elements : 4330
Stream size : 63.5 MiB (0%)
Language : English
Default : No
Forced : No

Text #5
ID : 8
Format : PGS
Muxing mode : zlib
Codec ID : S_HDMV/PGS
Codec ID/Info : Picture based subtitle format used on BDs/HD-DVDs
Duration : 1 h 41 min
Bit rate : 52.7 kb/s
Frame rate : 0.667 FPS
Count of elements : 4052
Stream size : 38.2 MiB (0%)
Language : French
Default : No
Forced : No

Text #6
ID : 9
Format : PGS
Muxing mode : zlib
Codec ID : S_HDMV/PGS
Codec ID/Info : Picture based subtitle format used on BDs/HD-DVDs
Duration : 1 h 41 min
Bit rate : 67.1 kb/s
Frame rate : 0.775 FPS
Count of elements : 4712
Stream size : 48.6 MiB (0%)
Language : Spanish
Default : No
Forced : No

Text #7
ID : 10
Format : PGS
Muxing mode : zlib
Codec ID : S_HDMV/PGS
Codec ID/Info : Picture based subtitle format used on BDs/HD-DVDs
Duration : 1 h 41 min
Bit rate : 65.4 kb/s
Frame rate : 0.680 FPS
Count of elements : 4150
Stream size : 47.6 MiB (0%)
Language : French
Default : No
Forced : No

Text #8
ID : 11
Format : PGS
Muxing mode : zlib
Codec ID : S_HDMV/PGS
Codec ID/Info : Picture based subtitle format used on BDs/HD-DVDs
Duration : 1 h 41 min
Bit rate : 76.7 kb/s
Frame rate : 0.684 FPS
Count of elements : 4178
Stream size : 55.8 MiB (0%)
Language : Spanish
Default : No
Forced : No

Menu
00:00:00.000 : en:Chapter 01
00:03:03.683 : en:Chapter 02
00:06:41.901 : en:Chapter 03
00:10:08.274 : en:Chapter 04
00:14:57.271 : en:Chapter 05
00:22:05.533 : en:Chapter 06
00:27:51.086 : en:Chapter 07
00:33:03.190 : en:Chapter 08
00:42:01.686 : en:Chapter 09
00:51:11.902 : en:Chapter 10
01:03:56.124 : en:Chapter 11
01:12:04.820 : en:Chapter 12
01:25:49.519 : en:Chapter 13
01:34:36.045 : en:Chapter 14

资源速度为零或资源敏感被和谐时,推荐使用qBittorrent等下载软件,有条件的推荐115更好的下载软件!

下载地址:

游客,如果您要查看本帖隐藏内容请回复

游客,如果您要查看本帖隐藏内容请回复
游客,如果您要查看本帖隐藏内容请回复

游客,如果您要查看本帖隐藏内容请回复

游客,如果您要查看本帖隐藏内容请回复

游客,如果您要查看本帖隐藏内容请回复







上一篇:星际旅行8:第一类接触 (1996) 4K高清版本下载
下一篇:布赖恩和查尔斯 / Brian and Charles (2022) 4K高清版本下载
回复

使用道具 举报

2

主题

1407

帖子

4073

积分

4K家园VIP

Rank: 9Rank: 9Rank: 9

积分
4073
发表于 2022-7-12 13:44:34 | 显示全部楼层
为毛老子总也抢不到沙发?!!
回复 支持 反对

使用道具 举报

6

主题

1655

帖子

4553

积分

中级会员

Rank: 4

积分
4553
发表于 2022-7-13 12:23:18 | 显示全部楼层
不错 支持下
回复 支持 反对

使用道具 举报

3

主题

1344

帖子

4050

积分

4K家园VIP

Rank: 9Rank: 9Rank: 9

积分
4050
发表于 2022-7-17 07:30:21 来自手机 | 显示全部楼层
呵呵,低调,低调!
回复 支持 反对

使用道具 举报

1

主题

1353

帖子

4075

积分

4K家园VIP

Rank: 9Rank: 9Rank: 9

积分
4075
发表于 2022-7-18 13:46:21 | 显示全部楼层
什么东西啊
回复 支持 反对

使用道具 举报

2

主题

1635

帖子

4499

积分

4K家园VIP

Rank: 9Rank: 9Rank: 9

积分
4499
发表于 2022-7-20 08:13:36 | 显示全部楼层
怎么这么大,希望我电视能看啊
回复 支持 反对

使用道具 举报

0

主题

2

帖子

9

积分

新手上路

Rank: 1

积分
9
发表于 2022-7-20 22:35:27 | 显示全部楼层
他wetwertert额头而他额头wert
回复 支持 反对

使用道具 举报

您需要登录后才可以回帖 登录 | 立即注册

本版积分规则

精彩图文
Archiver|手机版|TAG|Sitemap|新帖|专题|联系我们:邮箱: 4kjia.com@gmail.com   

4k家园   ©2019