[4K MV] [4Kjia] 2020 Taeyeon - Happy (快乐!) [2160P/MP4/415MB]

[复制链接]

1764

主题

1843

帖子

1万

积分

超级版主

Rank: 8Rank: 8

积分
19327
 楼主| 发表于 2022-7-13 14:46:47 | 显示全部楼层 |阅读模式
本帖最后由 没完没了 于 2022-8-3 21:16 编辑

[4Kjia]Taeyeon - Happy (快乐!).mp4_20220713_142931.700.jpg [4Kjia]Taeyeon - Happy (快乐!).mp4_20220713_142944.627.jpg [4Kjia]Taeyeon - Happy (快乐!).mp4_20220713_142956.636.jpg [4Kjia]Taeyeon - Happy (快乐!).mp4_20220713_143018.252.jpg [4Kjia]Taeyeon - Happy (快乐!).mp4_20220713_143031.964.jpg [4Kjia]Taeyeon - Happy (快乐!).mp4_20220713_143046.691.jpg

Video
ID                             : 1
Format                         : HEVC
Format/Info                    : High Efficiency Video Coding
Format profile                 : Main@L5@Main
Codec ID                       : hvc1
Codec ID/Info                  : High Efficiency Video Coding
Duration                       : 3 min 45 s
Bit rate                       : 15.1 Mb/s
Width                          : 3 840 pixels
Height                         : 2 160 pixels
Display aspect ratio           : 16:9
Frame rate mode                : Variable
Frame rate                     : 23.976 (23976/1000) FPS
Minimum frame rate             : 23.786 FPS
Maximum frame rate             : 11 988.000 FPS
Color space                    : YUV
Chroma subsampling             : 4:2:0
Bit depth                      : 8 bits
Bits/(Pixel*Frame)             : 0.076
Stream size                    : 407 MiB (98%)
Writing library                : x265 3.1+11-de920e0a3183:[Windows][GCC 9.1.1][64 bit] 8bit+10bit
Encoding settings              : cpuid=1111039 / frame-threads=6 / numa-pools=48,0 / wpp / no-pmode / no-pme / no-psnr / no-ssim / log-level=2 / input-csp=1 / input-res=3840x2160 / interlace=0 / total-frames=0 / level-idc=0 / high-tier=1 / uhd-bd=0 / ref=4 / no-allow-non-conformance / no-repeat-headers / annexb / no-aud / no-hrd / info / hash=0 / no-temporal-layers / open-gop / min-keyint=23 / keyint=250 / gop-lookahead=0 / bframes=4 / b-adapt=2 / b-pyramid / bframe-bias=0 / rc-lookahead=25 / lookahead-slices=4 / scenecut=40 / radl=0 / no-splice / no-intra-refresh / ctu=64 / min-cu-size=8 / rect / no-amp / max-tu-size=32 / tu-inter-depth=1 / tu-intra-depth=1 / limit-tu=0 / rdoq-level=2 / dynamic-rd=0.00 / no-ssim-rd / signhide / no-tskip / nr-intra=0 / nr-inter=0 / no-constrained-intra / no-strong-intra-smoothing / max-merge=3 / limit-refs=3 / limit-modes / me=3 / subme=3 / merange=57 / temporal-mvp / no-hme / weightp / no-weightb / no-analyze-src-pics / deblock=0:0 / sao / no-sao-non-deblock / rd=4 / no-early-skip / rskip / no-fast-intra / no-tskip-fast / no-cu-lossless / no-b-intra / no-splitrd-skip / rdpenalty=0 / psy-rd=2.00 / psy-rdoq=1.00 / no-rd-refine / no-lossless / cbqpoffs=0 / crqpoffs=0 / rc=crf / crf=19.0 / qcomp=0.60 / qpstep=4 / stats-write=0 / stats-read=0 / ipratio=1.40 / pbratio=1.30 / aq-mode=2 / aq-strength=1.00 / cutree / zone-count=0 / no-strict-cbr / qg-size=32 / no-rc-grain / qpmax=69 / qpmin=0 / no-const-vbv / sar=0 / overscan=0 / videoformat=5 / range=0 / colorprim=2 / transfer=2 / colormatrix=2 / chromaloc=0 / display-window=0cll=0,0 / min-luma=0 / max-luma=255 / log2-max-poc-lsb=8 / vui-timing-info / vui-hrd-info / slices=1 / no-opt-qp-pps / no-opt-ref-list-length-pps / no-multi-pass-opt-rps / scenecut-bias=0.05 / no-opt-cu-delta-qp / no-aq-motion / no-hdr / no-hdr-opt / no-dhdr10-opt / no-idr-recovery-sei / analysis-reuse-level=5 / scale-factor=0 / refine-intra=0 / refine-inter=0 / refine-mv=0 / refine-ctu-distortion=0 / no-limit-sao / ctu-info=0 / no-lowpass-dct / refine-analysis-type=0 / copy-pic=1 / max-ausize-factor=1.0 / no-dynamic-refine / no-single-sei / no-hevc-aq / no-svt / no-field / qp-adaptation-range=1.00
Encoded date                   : UTC 2022-01-30 10:02:09
Tagged date                    : UTC 2022-01-30 10:02:09
Color range                    : Limited
Codec configuration box        : hvcC

Audio
ID                             : 2
Format                         : AAC LC
Format/Info                    : Advanced Audio Codec Low Complexity
Codec ID                       : mp4a-40-2
Duration                       : 3 min 45 s
Bit rate mode                  : Constant
Bit rate                       : 317 kb/s
Channel(s)                     : 2 channels
Channel layout                 : L R
Sampling rate                  : 48.0 kHz
Frame rate                     : 46.875 FPS (1024 SPF)
Compression mode               : Lossy
Stream size                    : 8.53 MiB (2%)
Title                          : 317-467 kbps aac
Language                       : Korean
Default                        : Yes
Alternate group                : 1
Encoded date                   : UTC 2022-01-30 10:02:09
Tagged date                    : UTC 2022-01-30 10:02:09

下载地址:
小水管制作不易,为了他人请下载后自觉做种,在此表示感谢!
****此区域为收费内容****    需支付 20 金币后可查看立即购买

提供2010-2022年本人多年来珍藏优质[4K、8K、16K(25-120fps)] 高品质韩国(女团)MV、各种演示片、测试片等4K韩国MV“珍藏版”视频硬盘有偿拷贝或网盘分享,最新4K视频每天更新中,需要的联系本楼主!





上一篇:[4K MV] 玫瑰 - On the Ground 4K@60fps [2160P/MP4/815MB]
下一篇:[4K MV] 2022 Itzy - Sneakers(运动鞋) [2160P/MP4/1.72GB]
回复

使用道具 举报

2

主题

1374

帖子

3912

积分

4K家园VIP

Rank: 9Rank: 9Rank: 9

积分
3912
发表于 2022-7-13 14:46:51 | 显示全部楼层
前排支持下了哦~
回复 支持 反对

使用道具 举报

1

主题

1160

帖子

3500

积分

4K家园VIP

Rank: 9Rank: 9Rank: 9

积分
3500
发表于 2022-7-13 17:33:35 来自手机 | 显示全部楼层
垃圾内容,路过为证。
回复 支持 反对

使用道具 举报

53

主题

1513

帖子

4409

积分

4K家园VIP

Rank: 9Rank: 9Rank: 9

积分
4409
发表于 2022-7-13 19:31:17 | 显示全部楼层
不错 支持一个了
回复 支持 反对

使用道具 举报

49

主题

1478

帖子

4260

积分

4K家园VIP

Rank: 9Rank: 9Rank: 9

积分
4260
发表于 2022-7-14 02:25:22 来自手机 | 显示全部楼层
佩服佩服!
回复 支持 反对

使用道具 举报

40

主题

1503

帖子

4313

积分

4K家园VIP

Rank: 9Rank: 9Rank: 9

积分
4313
发表于 2022-7-14 13:37:37 来自手机 | 显示全部楼层
看起来好像不错的样子
回复 支持 反对

使用道具 举报

您需要登录后才可以回帖 登录 | 立即注册

本版积分规则

精彩图文
Archiver|手机版|TAG|Sitemap|新帖|专题|联系我们:邮箱: 4kjia.com@gmail.com   

4k家园   ©2019