[4K电影] 布赖恩和查尔斯 / Brian and Charles (2022) 4K高清版本下载

[复制链接]

2163

主题

2306

帖子

1万

积分

超级版主

Rank: 8Rank: 8

积分
16861
 楼主| 发表于 2022-7-14 10:44:56 | 显示全部楼层 |阅读模式
QQ图片20220714103028_副本.png

◎译  名 布赖恩和查尔斯
◎片  名 Brian and Charles
◎年  代 2022
◎产  地 英国
◎类  别 喜剧
◎语  言 英语
◎上映日期 2022-01-23(圣丹斯电影节)/2022-06-17(美国)
◎IMDb评分 6.6/10 from 1127 users
◎IMDb链接 https://www.imdb.com/title/tt13270424/
◎豆瓣评分 0/10 from 0 users
◎豆瓣链接 https://movie.douban.com/subject/35694760/
◎导  演 吉姆·阿切尔 Jim Archer
◎编  剧 大卫·厄尔 David Earl / 克里斯·海沃德 Chris Hayward
◎主  演 大卫·厄尔 David Earl
       克里斯·海沃德 Chris Hayward
       露易丝·布瑞丽 Louise Brealey
       杰米·米奇 Jamie Michie
       尼娜·索珊娅 Nina Sosanya
       林恩·亨特 Lynn Hunter
       劳里·伊扎德 Lowri Izzard
       马利·伊扎德 Mari Izzard
       卡拉·蔡斯 Cara Chase
       苏尼尔·帕特尔 Sunil Patel
       里希·奈尔 Rishi Nair
       科林·贝内特 Colin Bennett
       薇薇安·索恩 Vivienne Soan
       戴维·爱德华兹 David Edwards
       尼古拉斯·阿斯伯里 Nicholas Asbury
       克里斯·海沃德 Chris Hayward

◎简  介

  生活在威尔士农村的发明家布莱恩每天都在建造一些稀奇古怪、不怎么有用的新奇玩意儿。在孤独中,他用一台洗衣机和其他零碎造出了查尔斯,一个有智能的机器人,它能从字典里学习英语,并对卷心菜非常着迷。

◎获奖情况

  第38届圣丹斯电影节(2022)
  评审团大奖 世界电影单元剧情片(提名)

Video
ID : 1
Format : HEVC
Format/Info : High Efficiency Video Coding
Format profile : Main 10@L5@High
Codec ID : V_MPEGH/ISO/HEVC
Duration : 1 h 31 min
Bit rate : 12.1 Mb/s
Width : 3 840 pixels
Height : 1 600 pixels
Display aspect ratio : 2.40:1
Frame rate mode : Constant
Frame rate : 23.976 FPS
Color space : YUV
Chroma subsampling : 4:2:0
Bit depth : 10 bits
Bits/(Pixel*Frame) : 0.082
Stream size : 7.71 GiB (95%)
Language : English
Default : Yes
Forced : No
Color range : Limited
Color primaries : BT.709
Transfer characteristics : BT.709
Matrix coefficients : BT.709

Audio
ID : 2
Format : E-AC-3
Format/Info : Enhanced AC-3
Commercial name : Dolby Digital Plus
Codec ID : A_EAC3
Duration : 1 h 31 min
Bit rate mode : Constant
Bit rate : 640 kb/s
Channel(s) : 6 channels
Channel layout : L R C LFE Ls Rs
Sampling rate : 48.0 kHz
Frame rate : 31.250 FPS (1536 SPF)
Compression mode : Lossy
Stream size : 418 MiB (5%)
Language : English
Service kind : Complete Main
Default : Yes
Forced : No

Text #1
ID : 3
Format : UTF-8
Codec ID : S_TEXT/UTF8
Codec ID/Info : UTF-8 Plain Text
Duration : 1 h 30 min
Bit rate : 60 b/s
Frame rate : 0.279 FPS
Count of elements : 1516
Stream size : 40.3 KiB (0%)
Language : English
Default : No
Forced : No

Text #2
ID : 4
Format : UTF-8
Codec ID : S_TEXT/UTF8
Codec ID/Info : UTF-8 Plain Text
Duration : 1 h 30 min
Bit rate : 70 b/s
Frame rate : 0.318 FPS
Count of elements : 1727
Stream size : 46.9 KiB (0%)
Title : SDH
Language : English
Default : No
Forced : No

Text #3
ID : 5
Format : UTF-8
Codec ID : S_TEXT/UTF8
Codec ID/Info : UTF-8 Plain Text
Duration : 1 h 30 min
Bit rate : 49 b/s
Frame rate : 0.222 FPS
Count of elements : 1202
Stream size : 32.4 KiB (0%)
Title : Latin American
Language : Spanish
Default : No
Forced : No

Text #4
ID : 6
Format : UTF-8
Codec ID : S_TEXT/UTF8
Codec ID/Info : UTF-8 Plain Text
Duration : 1 h 30 min
Bit rate : 55 b/s
Frame rate : 0.222 FPS
Count of elements : 1200
Stream size : 36.4 KiB (0%)
Title : Canadian
Language : French
Default : No
Forced : No

Menu
00:00:00.000 : en:Chapter 1
00:06:15.917 : en:Chapter 2
00:10:29.754 : en:Chapter 3
00:15:13.329 : en:Chapter 4
00:21:44.262 : en:Chapter 5
00:27:24.894 : en:Chapter 6
00:32:08.678 : en:Chapter 7
00:38:52.916 : en:Chapter 8
00:44:12.318 : en:Chapter 9
00:52:32.944 : en:Chapter 10
00:58:02.190 : en:Chapter 11
01:02:33.753 : en:Chapter 12
01:06:09.636 : en:Chapter 13
01:13:26.614 : en:Chapter 14
01:19:28.476 : en:Chapter 15
01:24:53.051 : en:Chapter 16


资源速度为零或资源敏感被和谐时,推荐使用qBittorrent等下载软件,有条件的推荐115更好的下载软件!

下载地址:


游客,如果您要查看本帖隐藏内容请回复

游客,如果您要查看本帖隐藏内容请回复





上一篇:开心汉堡店 / Bob's Burgers: The Movie (2022) 4K高清版本下载
下一篇:侏罗纪世界3[中英双字]Jurassic World: Dominion(2022)4K高清版本下载
回复

使用道具 举报

0

主题

1331

帖子

4021

积分

4K家园VIP

Rank: 9Rank: 9Rank: 9

积分
4021
发表于 2022-7-14 10:45:00 | 显示全部楼层
4K应该不错,我也下个看看
回复 支持 反对

使用道具 举报

53

主题

1543

帖子

4469

积分

4K家园VIP

Rank: 9Rank: 9Rank: 9

积分
4469
发表于 2022-7-14 12:11:00 | 显示全部楼层
1v1飘过
回复 支持 反对

使用道具 举报

0

主题

1384

帖子

4168

积分

4K家园VIP

Rank: 9Rank: 9Rank: 9

积分
4168
发表于 2022-7-14 12:12:25 | 显示全部楼层
没看懂
回复 支持 反对

使用道具 举报

1

主题

1388

帖子

3964

积分

中级会员

Rank: 4

积分
3964
发表于 2022-7-14 13:42:49 | 显示全部楼层
有空一起交流一下
回复 支持 反对

使用道具 举报

40

主题

1554

帖子

4452

积分

4K家园VIP

Rank: 9Rank: 9Rank: 9

积分
4452
发表于 2022-7-14 16:28:42 来自手机 | 显示全部楼层
专业抢沙发的!哈哈
回复 支持 反对

使用道具 举报

您需要登录后才可以回帖 登录 | 立即注册

本版积分规则

精彩图文
Archiver|手机版|TAG|Sitemap|新帖|专题|联系我们:邮箱: 4kjia.com@gmail.com   

4k家园   ©2019