[4K电影] 侏罗纪世界3[中英双字]Jurassic World: Dominion(2022)4K高清版本下载

  [复制链接]

2333

主题

2482

帖子

1万

积分

超级版主

Rank: 8Rank: 8

积分
17979
 楼主| 发表于 2022-7-14 12:24:50 | 显示全部楼层 |阅读模式
本帖最后由 最爱4K哟 于 2022-7-15 14:27 编辑

QQ图片20220714121922_副本.png

◎译  名 侏罗纪世界3 / 侏罗纪世界3:统治 / 侏罗纪世界:统治霸权(港) / 侏罗纪世界:统霸天下(台) / 侏罗纪公园6 / Jurassic Park 6
◎片  名 Jurassic World: Dominion
◎年  代 2022
◎产  地 美国 / 马耳他
◎类  别 动作 / 科幻 / 冒险
◎语  言 英语
◎上映日期 2022-06-10(美国/中国大陆) / 2022-06-01(韩国)
◎IMDb评分 7.4/10 from 5587 users
◎IMDb链接 https://www.imdb.com/title/tt8041270/
◎豆瓣评分 6.3/10 from 113671 users
◎豆瓣链接 https://movie.douban.com/subject/26873582/
◎片  长 146分钟
◎导  演 科林·特莱沃若 Colin Trevorrow
◎编  剧 科林·特莱沃若 Colin Trevorrow / 艾米丽·卡迈克尔 Emily Carmichael / 德里克·康纳利 Derek Connolly / 迈克尔·克莱顿 Michael Crichton
◎演  员 克里斯·帕拉特 Chris Pratt
       布莱丝·达拉斯·霍华德 Bryce Dallas Howard
       山姆·尼尔 Sam Neill
       劳拉·邓恩 Laura Dern
       杰夫·高布伦 Jeff Goldblum
       伊莎贝拉·瑟蒙 Isabella Sermon
       马莫多·阿西 Mamoudou Athie
       丹妮艾拉·皮内达 Daniella Pineda
       迪辰·拉克曼 Dichen Lachman
       黄荣亮 B.D. Wong
       克里斯托弗·普拉哈 Kristoffer Polaha
       奥玛·希 Omar Sy
       贾斯蒂斯·史密斯 Justice Smith
       坎贝尔·斯科特 Campbell Scott
       德汪达·怀斯 DeWanda Wise
       斯科特·黑兹 Scott Haze
       弗雷娅·帕克 Freya Parker
       瓦拉达·塞图 Varada Sethu
       格利尼斯·戴维斯 Glynis Davies
       埃尔娃·崔尔 Elva Trill
       柯基·法尔考 Cokey Falkow
       伯纳多·桑托斯 Bernardo Santos
       迪米特里“维加斯”蒂瓦约 Dimitri 'Vegas' Thivaios  
       小恩佐·斯奎利诺 Enzo Squillino Jr.
       特蕾莎·森登·加西亚 Teresa Cendon-Garcia
       杰克·约翰逊 Jake M. Johnson
       乔·阿泽帕迪 Joe Azzopardi
       帕特里克·克劳利 Patrick Crowley
       弗兰克·马歇尔 Frank Marshall
       史蒂文·斯皮尔伯格 Steven Spielberg
       科林·特莱沃若 Colin Trevorrow
       温斯顿·阿佐帕迪 Winston Azzopardi
       迈克·吉亚奇诺 Michael Giacchino
       约翰·施瓦兹曼 John Schwartzman
       马克·桑格 Mark Sanger
       妮娜·古德 Nina Gold
       凯文·詹金斯 Kevin Jenkins
       理查德·罗伯茨 Richard Roberts


◎简  介


  影片为《侏罗纪世界》系列的完结篇,故事的开篇设定在纳布拉尔岛被摧毁的四年后。如今,恐龙在世界各地与人类共同生活、共同捕猎。这一脆弱的平衡将重塑未来,并最终决定人类能否与史上最可怕生物共享这颗星球,并继续站在食物链的顶端。
General
Complete name                  : G:\qB下载\Jurassic.World.Dominion.2022.2160p.HDR.AMZN.WEB-DL.DDP5.1.HEVC-EVO[TGx]\[4Kjia无损封装]侏罗纪世界3 (中英简体,简体中字Jurassic.World.Dominion.2022.2160p.HDR.AMZN.WEB-DL.DDP5.1\[4Kjia无损封装]侏罗纪世界3 (中英简体,简体中字Jurassic.World.Dominion.2022.2160p.HDR.AMZN.WEB-DL.DDP5.1 (1).mkv
Format                         : Matroska
Format version                 : Version 4
File size                      : 15.8 GiB
Duration                       : 2 h 27 min
Overall bit rate               : 15.4 Mb/s
Movie name                     : EVO
Encoded date                   : UTC 2022-07-15 02:23:28
Writing application            : mkvmerge v68.0.0 ('The Curtain') 64-bit
Writing library                : libebml v1.4.2 + libmatroska v1.6.4

Video
ID                             : 1
Format                         : HEVC
Format/Info                    : High Efficiency Video Coding
Format profile                 : Main 10@L5@Main
HDR format                     : SMPTE ST 2094 App 4, Version 1, HDR10+ Profile B compatible
Codec ID                       : V_MPEGH/ISO/HEVC
Duration                       : 2 h 27 min
Bit rate                       : 14.7 Mb/s
Width                          : 3 840 pixels
Height                         : 1 920 pixels
Display aspect ratio           : 2.000
Frame rate mode                : Constant
Frame rate                     : 23.976 (24000/1001) FPS
Color space                    : YUV
Chroma subsampling             : 4:2:0
Bit depth                      : 10 bits
Bits/(Pixel*Frame)             : 0.083
Stream size                    : 15.2 GiB (96%)
Language                       : English
Default                        : Yes
Forced                         : No
Color range                    : Limited
Color primaries                : BT.2020
Transfer characteristics       : PQ
Matrix coefficients            : BT.2020 non-constant
Mastering display color primar : Display P3
Mastering display luminance    : min: 0.0050 cd/m2, max: 1000 cd/m2
Maximum Content Light Level    : 548 cd/m2
Maximum Frame-Average Light Le : 359 cd/m2

Audio
ID                             : 2
Format                         : E-AC-3
Format/Info                    : Enhanced AC-3
Commercial name                : Dolby Digital Plus
Codec ID                       : A_EAC3
Duration                       : 2 h 27 min
Bit rate mode                  : Constant
Bit rate                       : 640 kb/s
Channel(s)                     : 6 channels
Channel layout                 : L R C LFE Ls Rs
Sampling rate                  : 48.0 kHz
Frame rate                     : 31.250 FPS (1536 SPF)
Compression mode               : Lossy
Delay relative to video        : 14 ms
Stream size                    : 675 MiB (4%)
Language                       : English
Service kind                   : Complete Main
Default                        : Yes
Forced                         : No

Text #1
ID                             : 3
Format                         : UTF-8
Codec ID                       : S_TEXT/UTF8
Codec ID/Info                  : UTF-8 Plain Text
Duration                       : 2 h 14 min
Bit rate                       : 114 b/s
Count of elements              : 1799
Stream size                    : 113 KiB (0%)
Default                        : Yes
Forced                         : No

Text #2
ID                             : 4
Format                         : UTF-8
Codec ID                       : S_TEXT/UTF8
Codec ID/Info                  : UTF-8 Plain Text
Duration                       : 2 h 14 min
Bit rate                       : 36 b/s
Count of elements              : 1552
Stream size                    : 36.2 KiB (0%)
Language                       : 中文(简体
Default                        : Yes
Forced                         : No

Text #3
ID                             : 5
Format                         : UTF-8
Codec ID                       : S_TEXT/UTF8
Codec ID/Info                  : UTF-8 Plain Text
Duration                       : 2 h 14 min
Bit rate                       : 36 b/s
Count of elements              : 1552
Stream size                    : 36.2 KiB (0%)
Language                       : 中文(简体)
Default                        : Yes
Forced                         : No
Video
ID                             : 1
Format                         : HEVC
Format/Info                    : High Efficiency Video Coding
Format profile                 : Main 10@L5@Main
HDR format                     : SMPTE ST 2094 App 4, Version 1, HDR10+ Profile B compatible
Codec ID                       : V_MPEGH/ISO/HEVC
Duration                       : 2 h 27 min
Bit rate                       : 14.4 Mb/s
Width                          : 3 840 pixels
Height                         : 1 920 pixels
Display aspect ratio           : 2.000
Frame rate mode                : Constant
Frame rate                     : 23.976 (24000/1001) FPS
Color space                    : YUV
Chroma subsampling             : 4:2:0
Bit depth                      : 10 bits
Bits/(Pixel*Frame)             : 0.082
Stream size                    : 14.9 GiB (94%)
Language                       : English
Default                        : Yes
Forced                         : No
Color range                    : Limited
Color primaries                : BT.2020
Transfer characteristics       : PQ
Matrix coefficients            : BT.2020 non-constant
Mastering display color primar : Display P3
Mastering display luminance    : min: 0.0050 cd/m2, max: 1000 cd/m2
Maximum Content Light Level    : 548 cd/m2
Maximum Frame-Average Light Le : 359 cd/m2

Audio
ID                             : 2
Format                         : E-AC-3
Format/Info                    : Enhanced AC-3
Commercial name                : Dolby Digital Plus
Codec ID                       : A_EAC3
Duration                       : 2 h 27 min
Bit rate mode                  : Constant
Bit rate                       : 640 kb/s
Channel(s)                     : 6 channels
Channel layout                 : L R C LFE Ls Rs
Sampling rate                  : 48.0 kHz
Frame rate                     : 31.250 FPS (1536 SPF)
Compression mode               : Lossy
Delay relative to video        : 14 ms
Stream size                    : 675 MiB (4%)
Language                       : English
Service kind                   : Complete Main
Default                        : Yes
Forced                         : No

资源速度为零或资源敏感被和谐时,推荐使用qBittorrent等下载软件,有条件的推荐115更好的下载软件!

下载地址:

[4Kjia无损封装]侏罗纪世界3 (15.83GB)(中英简体,简体中字Jurassic.World.Dominion.2022.2160p.HDR.AMZN.WEB-DL.DDP5.1
游客,如果您要查看本帖隐藏内容请回复

****此区域为收费内容****    需支付 9 金币后可查看立即购买

****此区域为收费内容****    需支付 9 金币后可查看立即购买

****此区域为收费内容****    需支付 9 金币后可查看立即购买

游客,如果您要查看本帖隐藏内容请回复

游客,如果您要查看本帖隐藏内容请回复

游客,如果您要查看本帖隐藏内容请回复

游客,如果您要查看本帖隐藏内容请回复

游客,如果您要查看本帖隐藏内容请回复









上一篇:布赖恩和查尔斯 / Brian and Charles (2022) 4K高清版本下载
下一篇:黑色电话 / The Black Phone (2021) 4K高清版本下载
回复

使用道具 举报

4

主题

1366

帖子

4120

积分

4K家园VIP

Rank: 9Rank: 9Rank: 9

积分
4120
发表于 2022-7-14 12:24:54 来自手机 | 显示全部楼层
谢谢楼主
回复 支持 反对

使用道具 举报

0

主题

477

帖子

2907

积分

注册会员

Rank: 2

积分
2907
发表于 2022-7-14 13:13:27 | 显示全部楼层
谢谢楼主分享
回复 支持 反对

使用道具 举报

0

主题

291

帖子

1772

积分

4K家园VIP

Rank: 9Rank: 9Rank: 9

积分
1772
QQ
发表于 2022-7-14 18:49:22 | 显示全部楼层
楼主辛苦了,谢谢楼主,感谢楼主分享,楼主好人一生平安!!!
回复 支持 反对

使用道具 举报

1

主题

7

帖子

89

积分

新手上路

Rank: 1

积分
89
发表于 2022-7-14 20:34:08 | 显示全部楼层
怎么没字母啊
回复 支持 反对

使用道具 举报

1

主题

7

帖子

89

积分

新手上路

Rank: 1

积分
89
发表于 2022-7-14 20:35:41 | 显示全部楼层
字母去哪找
回复 支持 反对

使用道具 举报

0

主题

16

帖子

141

积分

4K家园VIP

Rank: 9Rank: 9Rank: 9

积分
141
发表于 2022-7-14 22:35:45 | 显示全部楼层
楼主辛苦了,谢谢楼主
回复 支持 反对

使用道具 举报

0

主题

15

帖子

133

积分

新手上路

Rank: 1

积分
133
发表于 2022-7-14 22:52:57 | 显示全部楼层
感谢楼主分享!
回复 支持 反对

使用道具 举报

0

主题

1

帖子

6

积分

新手上路

Rank: 1

积分
6
发表于 2022-7-14 23:23:50 | 显示全部楼层
这么快就有4K 版本的了!!
回复 支持 反对

使用道具 举报

1

主题

56

帖子

425

积分

新手上路

Rank: 1

积分
425
发表于 2022-7-15 00:04:08 | 显示全部楼层
qidaixia
回复

使用道具 举报

您需要登录后才可以回帖 登录 | 立即注册

本版积分规则

精彩图文
Archiver|手机版|TAG|Sitemap|新帖|专题|联系我们:邮箱: 4kjia.com@gmail.com   

4k家园   ©2019