[4K电影] 光年正传 / Lightyear (2022) 4K高清版本下载

  [复制链接]

2163

主题

2306

帖子

1万

积分

超级版主

Rank: 8Rank: 8

积分
16861
 楼主| 发表于 2022-7-14 21:55:53 | 显示全部楼层 |阅读模式
本帖最后由 最爱4K哟 于 2022-7-14 21:57 编辑

QQ图片20220714213715_副本.png

◎译  名 光年正传 / 巴斯光年
◎片  名 Lightyear
◎年  代 2022
◎产  地 美国
◎类  别 科幻 / 动画 / 冒险
◎语  言 英语
◎上映日期 2022-06-15(意大利) / 2022-06-17(美国)
◎IMDb评分 5.3/10 from 44335 users
◎IMDb链接 https://www.imdb.com/title/tt10298810/
◎豆瓣评分 7.2/10 from 1858 users
◎豆瓣链接 https://movie.douban.com/subject/35284168/
◎片  长 105分钟
◎导  演 安格斯·麦克莱恩 Angus MacLane
◎编  剧 安格斯·麦克莱恩 Angus MacLane / 杰森·赫德利 Jason Headley / 马修·奥尔德里奇 Matthew Aldrich / 彼特·道格特 Pete Docter / 安德鲁·斯坦顿 Andrew Stanton / 乔·兰福特 Joe Ranft
◎演  员 克里斯·埃文斯 Chris Evans
       柯柯·帕尔莫 Keke Palmer
       彼得·孙 Peter Sohn
       塔伊加·维迪提 Taika Waititi
       戴尔·索尔斯 Dale Soules
       詹姆斯·布洛林 James Brolin
       乌佐·阿杜巴 Uzo Aduba
       玛丽·麦克唐纳-刘易斯 Mary McDonald-Lewis
       小伊塞亚·维特洛克 Isiah Whitlock Jr.
                   安格斯·麦克莱恩 Angus MacLane
                   比尔·哈德尔 Bill Hader
                   艾弗连·莱米雷斯 Efren Ramirez
                   凯拉·海斯顿 Keira Hairston


◎简  介


         皮克斯打造《玩具总动员》系列衍生动画电影《光年正传》,美队Chris Evans配音。讲述巴斯光年人类原型宇航员的起源故事,他从一个年轻的试飞员,变为大家熟知的太空游侠。
Video
ID : 1
Format : HEVC
Format/Info : High Efficiency Video Coding
Format profile : Main 10@L5@High
HDR format : Dolby Vision, Version 1.0, dvhe.05.06, BL+RPU
Codec ID : dvhe
Codec ID/Info : High Efficiency Video Coding with Dolby Vision
Duration : 1 h 45 min
Bit rate : 24.4 Mb/s
Width : 3 840 pixels
Height : 1 608 pixels
Display aspect ratio : 2.40:1
Frame rate mode : Constant
Frame rate : 23.976 (24000/1001) FPS
Color space : YUV
Chroma subsampling : 4:2:0
Bit depth : 10 bits
Bits/(Pixel*Frame) : 0.165
Stream size : 17.9 GiB (97%)
Default : Yes
Alternate group : 1
Encoded date : UTC 2022-07-14 13:15:47
Tagged date : UTC 2022-07-14 13:18:17
Codec configuration box : hvcC+dvcC

Audio
ID : 2
Format : E-AC-3 JOC
Format/Info : Enhanced AC-3 with Joint Object Coding
Commercial name : Dolby Digital Plus with Dolby Atmos
Codec ID : ec-3
Duration : 1 h 45 min
Bit rate mode : Constant
Bit rate : 768 kb/s
Maximum bit rate : 811 kb/s
Channel(s) : 6 channels
Channel layout : L R C LFE Ls Rs
Sampling rate : 48.0 kHz
Frame rate : 31.250 FPS (1536 SPF)
Compression mode : Lossy
Stream size : 577 MiB (3%)
Title : English
Language : English
Service kind : Complete Main
Default : Yes
Alternate group : 1
Tagged date : UTC 2022-07-14 13:18:17
Complexity index : Not present / 16
Number of dynamic objects : 15
Bed channel count : 1 channel
Bed channel configuration : LFE

资源速度为零或资源敏感被和谐时,推荐使用qBittorrent等下载软件,有条件的推荐115更好的下载软件!

下载地址:


游客,如果您要查看本帖隐藏内容请回复

游客,如果您要查看本帖隐藏内容请回复

游客,如果您要查看本帖隐藏内容请回复

游客,如果您要查看本帖隐藏内容请回复







上一篇:黑色电话 / The Black Phone (2021) 4K高清版本下载
下一篇:亲爱的匿名者[简繁中字] / Anónima (2021) 4K高清版本下载
回复

使用道具 举报

1

主题

1610

帖子

4472

积分

4K家园VIP

Rank: 9Rank: 9Rank: 9

积分
4472
发表于 2022-7-14 21:55:57 | 显示全部楼层
楼主呀,,,您太有才了。。。
回复 支持 反对

使用道具 举报

0

主题

1

帖子

10

积分

新手上路

Rank: 1

积分
10
发表于 2022-7-14 23:15:30 | 显示全部楼层
支持一下
回复

使用道具 举报

1

主题

1424

帖子

4088

积分

4K家园VIP

Rank: 9Rank: 9Rank: 9

积分
4088
发表于 2022-7-15 01:11:41 | 显示全部楼层
试试看吧
回复 支持 反对

使用道具 举报

2

主题

1341

帖子

3837

积分

4K家园VIP

Rank: 9Rank: 9Rank: 9

积分
3837
发表于 2022-7-15 02:40:12 | 显示全部楼层
为保住菊花,这个一定得回复!
回复 支持 反对

使用道具 举报

1

主题

1352

帖子

4074

积分

4K家园VIP

Rank: 9Rank: 9Rank: 9

积分
4074
发表于 2022-7-15 05:36:09 | 显示全部楼层
一直在看
回复 支持 反对

使用道具 举报

0

主题

1

帖子

10

积分

新手上路

Rank: 1

积分
10
发表于 2022-7-15 07:03:03 | 显示全部楼层
试试看吧
回复

使用道具 举报

1

主题

1247

帖子

3759

积分

4K家园VIP

Rank: 9Rank: 9Rank: 9

积分
3759
发表于 2022-7-15 07:39:24 | 显示全部楼层
支持你哈...................................
回复 支持 反对

使用道具 举报

0

主题

104

帖子

663

积分

4K家园VIP

Rank: 9Rank: 9Rank: 9

积分
663
发表于 2022-7-16 13:25:07 | 显示全部楼层
楼主辛苦了,谢谢楼主,感谢楼主分享,楼主好人一生平安!!!
回复 支持 反对

使用道具 举报

0

主题

2

帖子

15

积分

新手上路

Rank: 1

积分
15
发表于 2022-7-17 00:11:52 来自手机 | 显示全部楼层
楼主是我的神
回复 支持 反对

使用道具 举报

您需要登录后才可以回帖 登录 | 立即注册

本版积分规则

精彩图文
Archiver|手机版|TAG|Sitemap|新帖|专题|联系我们:邮箱: 4kjia.com@gmail.com   

4k家园   ©2019