[4K电影] 死亡笔记 [简繁中字] / Extinction (2018) 4K高清版本下载

[复制链接]

2163

主题

2306

帖子

1万

积分

超级版主

Rank: 8Rank: 8

积分
16861
 楼主| 发表于 2022-7-15 12:59:03 | 显示全部楼层 |阅读模式
本帖最后由 最爱4K哟 于 2022-7-15 13:03 编辑

QQ图片20220715124342_副本.png

◎译  名 死亡笔记/死亡笔记真人版/死亡笔记美国版
◎片  名 Death Note
◎年  代 2017
◎产  地 美国
◎类  别 剧情/悬疑/惊悚/犯罪
◎语  言 英语
◎上映日期 2017-08-25(美国)
◎IMDb评分 4.5/10 from 84150 users
◎IMDb链接 https://www.imdb.com/title/tt1241317/
◎豆瓣评分 4.2/10 from 7474 users
◎豆瓣链接 https://movie.douban.com/subject/5920220/
◎导  演 亚当·温加德 Adam Wingard
◎编  剧 查理·帕拉伯尼得斯 Charley Parlapanides / 维拉斯·帕拉伯尼得斯 Vlas Parlapanides / 杰瑞米·斯莱特 Jeremy Slater / 大场鸫 Tsugumi Ohba / 小畑健 Takeshi Obata
◎主  演 纳特·沃尔夫 Nat Wolff
         勒凯斯·斯坦菲尔德 Lakeith Stanfield
       玛格丽特·库里 Margaret Qualley
       谢伊·惠格姆 Shea Whigham
       威廉·达福 Willem Dafoe
       杰森·莱尔斯 Jason Liles
       保罗·纳高奇 Paul Nakauchi
       杰克·埃特林格 Jack Ettlinger
       马修·凯文·安德森 Matthew Kevin Anderson
       克里斯·布里顿 Chris Britton
       科维西·阿梅扬 Kwesi Ameyaw
       贾斯汀·斯通 Justin Stone
       克里斯蒂安·斯隆 Christian Sloan
       阿汀·约翰 Artin John
       大卫·S·郑 David S. Jung
       杰西卡·麦丽奥德 Jessica McLeod
       保罗·麦克吉莱恩 Paul McGillion
       道恩·楚拜 Dawn Chubai
       迈克尔·肖姆斯·维尔斯 Michael Shamus Wiles

◎简  介

  凭借《纸上城市》(Paper Towns)而展露头脚的新人纳特·沃尔夫(Nat Wolff)最近正洽谈主演恐怖片《死亡笔记》(Death Note),该片由华纳兄弟公司出品,根据同名热门日本漫画改编。
  《死亡笔记》为大场鸫(Tsugumi Ohba)创作、小畑健(Takeshi Obata)绘画,是一套于2003年12月至2006年5月连载于集英社《周刊少年Jump》的心理悬疑推理漫画。故事主角是一个高中生,他无意中捡到了一个笔记本,发现自己只要把一个人的名字写在笔记本上,那个人就会立刻死去。
  这名高中生制造的一系列神秘死亡事件引起了一名侦探的注意,他开始追踪凶手,并试图解开事情的真相。
  《死亡笔记》在日本曾被改编成一套动画电视剧、两部真人电影和一套视频游戏。华纳几年前就买下了美版电影的版权,直到今年初才定下让《不速之客》(The Guest)的导演亚当·温加徳(Adam Wingard)来执导。
Video
ID : 1
Format : HEVC
Format/Info : High Efficiency Video Coding
Format profile : Main 10@L5@Main
HDR format : Dolby Vision, Version 1.0, dvhe.05.06, BL+RPU
Codec ID : V_MPEGH/ISO/HEVC
Duration : 1 h 40 min
Bit rate : 15.6 Mb/s
Width : 3 840 pixels
Height : 2 160 pixels
Display aspect ratio : 16:9
Frame rate mode : Constant
Frame rate : 23.976 (24000/1001) FPS
Color space : YUV
Chroma subsampling : 4:2:0
Bit depth : 10 bits
Bits/(Pixel*Frame) : 0.079
Stream size : 11.0 GiB (95%)
Default : Yes
Forced : No
Color range : Full

Audio
ID : 2
Format : E-AC-3 JOC
Format/Info : Enhanced AC-3 with Joint Object Coding
Commercial name : Dolby Digital Plus with Dolby Atmos
Codec ID : A_EAC3
Duration : 1 h 40 min
Bit rate mode : Constant
Bit rate : 768 kb/s
Channel(s) : 6 channels
Channel layout : L R C LFE Ls Rs
Sampling rate : 48.0 kHz
Frame rate : 31.250 FPS (1536 SPF)
Compression mode : Lossy
Stream size : 551 MiB (5%)
Language : English
Service kind : Complete Main
Default : Yes
Forced : No
Complexity index : 16
Number of dynamic objects : 15
Bed channel count : 1 channel
Bed channel configuration : LFE

Text #1
ID : 3
Format : UTF-8
Codec ID : S_TEXT/UTF8
Codec ID/Info : UTF-8 Plain Text
Duration : 1 h 39 min
Bit rate : 64 b/s
Frame rate : 0.212 FPS
Count of elements : 1265
Stream size : 47.0 KiB (0%)
Title : [CC]
Language : English
Default : No
Forced : No

Text #2
ID : 4
Format : UTF-8
Codec ID : S_TEXT/UTF8
Codec ID/Info : UTF-8 Plain Text
Duration : 1 h 39 min
Bit rate : 86 b/s
Frame rate : 0.182 FPS
Count of elements : 1083
Stream size : 63.1 KiB (0%)
Language : Arabic
Default : No
Forced : No

Text #3
ID : 5
Format : UTF-8
Codec ID : S_TEXT/UTF8
Codec ID/Info : UTF-8 Plain Text
Duration : 1 h 39 min
Bit rate : 46 b/s
Frame rate : 0.174 FPS
Count of elements : 1038
Stream size : 33.9 KiB (0%)
Language : Danish
Default : No
Forced : No

Text #4
ID : 6
Format : UTF-8
Codec ID : S_TEXT/UTF8
Codec ID/Info : UTF-8 Plain Text
Duration : 1 h 39 min
Bit rate : 46 b/s
Frame rate : 0.167 FPS
Count of elements : 999
Stream size : 34.1 KiB (0%)
Language : German
Default : No
Forced : No

Text #5
ID : 7
Format : UTF-8
Codec ID : S_TEXT/UTF8
Codec ID/Info : UTF-8 Plain Text
Duration : 1 h 34 min
Bit rate : 88 b/s
Frame rate : 0.198 FPS
Count of elements : 1116
Stream size : 61.3 KiB (0%)
Language : Greek
Default : No
Forced : No

Text #6
ID : 8
Format : UTF-8
Codec ID : S_TEXT/UTF8
Codec ID/Info : UTF-8 Plain Text
Duration : 1 h 32 min
Bit rate : 47 b/s
Frame rate : 0.189 FPS
Count of elements : 1051
Stream size : 32.5 KiB (0%)
Language : Spanish
Default : No
Forced : No

Text #7
ID : 9
Format : UTF-8
Codec ID : S_TEXT/UTF8
Codec ID/Info : UTF-8 Plain Text
Duration : 1 h 39 min
Bit rate : 51 b/s
Frame rate : 0.177 FPS
Count of elements : 1058
Stream size : 37.7 KiB (0%)
Title : European
Language : Spanish
Default : No
Forced : No

Text #8
ID : 10
Format : UTF-8
Codec ID : S_TEXT/UTF8
Codec ID/Info : UTF-8 Plain Text
Duration : 1 h 39 min
Bit rate : 43 b/s
Frame rate : 0.154 FPS
Count of elements : 920
Stream size : 31.9 KiB (0%)
Language : Finnish
Default : No
Forced : No

Text #9
ID : 11
Format : UTF-8
Codec ID : S_TEXT/UTF8
Codec ID/Info : UTF-8 Plain Text
Duration : 1 h 39 min
Bit rate : 47 b/s
Frame rate : 0.173 FPS
Count of elements : 1031
Stream size : 34.3 KiB (0%)
Language : French
Default : No
Forced : No

Text #10
ID : 12
Format : UTF-8
Codec ID : S_TEXT/UTF8
Codec ID/Info : UTF-8 Plain Text
Duration : 1 h 34 min
Bit rate : 78 b/s
Frame rate : 0.189 FPS
Count of elements : 1068
Stream size : 54.3 KiB (0%)
Language : Hebrew
Default : No
Forced : No

Text #11
ID : 13
Format : UTF-8
Codec ID : S_TEXT/UTF8
Codec ID/Info : UTF-8 Plain Text
Duration : 1 h 39 min
Bit rate : 48 b/s
Frame rate : 0.175 FPS
Count of elements : 1042
Stream size : 35.7 KiB (0%)
Language : Italian
Default : No
Forced : No

Text #12
ID : 14
Format : UTF-8
Codec ID : S_TEXT/UTF8
Codec ID/Info : UTF-8 Plain Text
Duration : 1 h 39 min
Bit rate : 43 b/s
Frame rate : 0.167 FPS
Count of elements : 994
Stream size : 31.8 KiB (0%)
Language : Japanese
Default : No
Forced : No

Text #13
ID : 15
Format : UTF-8
Codec ID : S_TEXT/UTF8
Codec ID/Info : UTF-8 Plain Text
Duration : 1 h 39 min
Bit rate : 54 b/s
Frame rate : 0.180 FPS
Count of elements : 1077
Stream size : 39.6 KiB (0%)
Language : Korean
Default : No
Forced : No

Text #14
ID : 16
Format : UTF-8
Codec ID : S_TEXT/UTF8
Codec ID/Info : UTF-8 Plain Text
Duration : 1 h 39 min
Bit rate : 42 b/s
Frame rate : 0.165 FPS
Count of elements : 986
Stream size : 31.3 KiB (0%)
Language : Norwegian Bokmal
Default : No
Forced : No

Text #15
ID : 17
Format : UTF-8
Codec ID : S_TEXT/UTF8
Codec ID/Info : UTF-8 Plain Text
Duration : 1 h 39 min
Bit rate : 46 b/s
Frame rate : 0.157 FPS
Count of elements : 935
Stream size : 34.0 KiB (0%)
Language : Dutch
Default : No
Forced : No

Text #16
ID : 18
Format : UTF-8
Codec ID : S_TEXT/UTF8
Codec ID/Info : UTF-8 Plain Text
Duration : 1 h 39 min
Bit rate : 44 b/s
Frame rate : 0.172 FPS
Count of elements : 1026
Stream size : 32.1 KiB (0%)
Language : Polish
Default : No
Forced : No

Text #17
ID : 19
Format : UTF-8
Codec ID : S_TEXT/UTF8
Codec ID/Info : UTF-8 Plain Text
Duration : 1 h 39 min
Bit rate : 51 b/s
Frame rate : 0.176 FPS
Count of elements : 1052
Stream size : 37.5 KiB (0%)
Language : Portuguese
Default : No
Forced : No

Text #18
ID : 20
Format : UTF-8
Codec ID : S_TEXT/UTF8
Codec ID/Info : UTF-8 Plain Text
Duration : 1 h 39 min
Bit rate : 51 b/s
Frame rate : 0.178 FPS
Count of elements : 1061
Stream size : 37.6 KiB (0%)
Title : Brazilian
Language : Portuguese
Default : No
Forced : No

Text #19
ID : 21
Format : UTF-8
Codec ID : S_TEXT/UTF8
Codec ID/Info : UTF-8 Plain Text
Duration : 1 h 39 min
Bit rate : 51 b/s
Frame rate : 0.177 FPS
Count of elements : 1057
Stream size : 37.7 KiB (0%)
Language : Romanian
Default : No
Forced : No

Text #20
ID : 22
Format : UTF-8
Codec ID : S_TEXT/UTF8
Codec ID/Info : UTF-8 Plain Text
Duration : 1 h 32 min
Bit rate : 83 b/s
Frame rate : 0.190 FPS
Count of elements : 1057
Stream size : 56.6 KiB (0%)
Language : Russian
Default : No
Forced : No

Text #21
ID : 23
Format : UTF-8
Codec ID : S_TEXT/UTF8
Codec ID/Info : UTF-8 Plain Text
Duration : 1 h 39 min
Bit rate : 48 b/s
Frame rate : 0.168 FPS
Count of elements : 1000
Stream size : 35.2 KiB (0%)
Language : Swedish
Default : No
Forced : No

Text #22
ID : 24
Format : UTF-8
Codec ID : S_TEXT/UTF8
Codec ID/Info : UTF-8 Plain Text
Duration : 1 h 39 min
Bit rate : 119 b/s
Frame rate : 0.180 FPS
Count of elements : 1073
Stream size : 87.3 KiB (0%)
Language : Thai
Default : No
Forced : No

Text #23
ID : 25
Format : UTF-8
Codec ID : S_TEXT/UTF8
Codec ID/Info : UTF-8 Plain Text
Duration : 1 h 39 min
Bit rate : 54 b/s
Frame rate : 0.175 FPS
Count of elements : 1044
Stream size : 40.1 KiB (0%)
Language : Turkish
Default : No
Forced : No

Text #24
ID : 26
Format : UTF-8
Codec ID : S_TEXT/UTF8
Codec ID/Info : UTF-8 Plain Text
Duration : 1 h 39 min
Bit rate : 68 b/s
Frame rate : 0.179 FPS
Count of elements : 1071
Stream size : 49.6 KiB (0%)
Language : Vietnamese
Default : No
Forced : No

Text #25
ID : 27
Format : UTF-8
Codec ID : S_TEXT/UTF8
Codec ID/Info : UTF-8 Plain Text
Duration : 1 h 39 min
Bit rate : 51 b/s
Frame rate : 0.179 FPS
Count of elements : 1071
Stream size : 37.8 KiB (0%)
Title : 中文(简体)
Language : 中文
Default : No
Forced : No

Text #26
ID : 28
Format : UTF-8
Codec ID : S_TEXT/UTF8
Codec ID/Info : UTF-8 Plain Text
Duration : 1 h 39 min
Bit rate : 51 b/s
Frame rate : 0.180 FPS
Count of elements : 1076
Stream size : 37.9 KiB (0%)
Title : 中文(繁体)
Language : 中文
Default : No
Forced : No

资源速度为零或资源敏感被和谐时,推荐使用qBittorrent等下载软件,有条件的推荐115更好的下载软件!

下载地址:
游客,如果您要查看本帖隐藏内容请回复

游客,如果您要查看本帖隐藏内容请回复

游客,如果您要查看本帖隐藏内容请回复





上一篇:危险的谎言 [简繁中字] / Dangerous Lies (2020) 4K高清版本下载
下一篇:灭绝 [简繁中字] / Extinction (2018) 4K高清版本下载
回复

使用道具 举报

2

主题

1688

帖子

4652

积分

4K家园VIP

Rank: 9Rank: 9Rank: 9

积分
4652
发表于 2022-7-15 12:59:07 | 显示全部楼层
有空一起交流一下
回复 支持 反对

使用道具 举报

44

主题

1531

帖子

4411

积分

4K家园VIP

Rank: 9Rank: 9Rank: 9

积分
4411
发表于 2022-7-15 12:59:08 来自手机 | 显示全部楼层
楼主呀,,,您太有才了。。。
回复 支持 反对

使用道具 举报

61

主题

1490

帖子

4294

积分

4K家园VIP

Rank: 9Rank: 9Rank: 9

积分
4294
发表于 2022-7-15 15:07:33 | 显示全部楼层
小白一个 顶一下
回复 支持 反对

使用道具 举报

1

主题

1756

帖子

4876

积分

4K家园VIP

Rank: 9Rank: 9Rank: 9

积分
4876
发表于 2022-7-16 05:54:00 来自手机 | 显示全部楼层
什么东西啊
回复 支持 反对

使用道具 举报

39

主题

1488

帖子

4260

积分

4K家园VIP

Rank: 9Rank: 9Rank: 9

积分
4260
发表于 2022-7-16 11:27:32 | 显示全部楼层
站位支持
回复 支持 反对

使用道具 举报

您需要登录后才可以回帖 登录 | 立即注册

本版积分规则

精彩图文
Archiver|手机版|TAG|Sitemap|新帖|专题|联系我们:邮箱: 4kjia.com@gmail.com   

4k家园   ©2019