[4K电影] 灭绝 [简繁中字] / Extinction (2018) 4K高清版本下载

[复制链接]

2118

主题

2259

帖子

1万

积分

超级版主

Rank: 8Rank: 8

积分
16577
 楼主| 发表于 2022-7-15 13:04:10 | 显示全部楼层 |阅读模式

QQ图片20220715124429_副本.png

◎译  名 灭绝/灭绝入侵(台)
◎片  名 Extinction
◎年  代 2018
◎产  地 美国
◎类  别 科幻/惊悚
◎语  言 英语
◎上映日期 2020-01-18(中国大陆)/2020-08-01(中国大陆重映)/2018-07-27(美国)
◎IMDb评分 5.8/10 from 52702 users
◎IMDb链接 https://www.imdb.com/title/tt3201640/
◎豆瓣评分 5.5/10 from 18647 users
◎豆瓣链接 https://movie.douban.com/subject/26871938/
◎导  演 本·扬 Ben Young
◎编  剧 斯宾塞·科恩 Spenser Cohen / 埃里克·海瑟尔 Eric Heisserer / 布拉德·凯恩 Brad Kane
◎主  演 迈克尔·佩纳 Michael Pe?a
       丽兹·卡潘 Lizzy Caplan
       伊瑟尔·布罗萨德 Israel Broussard
       麦克·柯尔特 Mike Colter
       艾玛·布斯 Emma Booth
       莱斯·施拉普内尔 Lex Shrapnel
       埃丽卡·特伦布莱 Erica Tremblay
       莉莉·阿斯佩尔 Lilly Aspell
       汤姆·莱利 Tom Riley
       伊万娜·基夫科维奇 Ivana Zivkovic
       阿梅利亚·克劳奇 Amelia Crouch
       桑德拉·特蕾丝 Sandra Teles
       尼古拉·肯特 Nikola Kent
       乔治娅·古德曼 Georgia Goodman
       伊沃娜·库斯图迪奇 Ivona Kustudic
       乔·科里加尔 Joe Corrigall
       兹拉缇嘉·欧科考吉克 Zlatija Ocokoljic
       米莲娜·普瑞德里克 Milena Predic
       佩塔尔·西里卡 Petar Cirica
       奥利维拉·达科 Olivera Darko
       米娜·奥布拉多维奇 Mina Obradovic
       乔万·古兰 Jovan Gulan
       弗拉基米尔·格里比 Vladimir Grbic
       布伦丹·斯托克 Brendan Stokey
       扎科·泽切维奇 Zarko Zecevic
       迈克尔·阿布索伦 Michael Absalom
       丹·凯德 Dan Cade


◎简  介

  一位未来的工薪阶层父亲反复梦到被未知力量摧毁。当他的噩梦开始影响自己与家人的关系时,他便很快意识到,外星人的无情攻击开始摧毁地球,而这些噩梦也许是骇人现实的关键线索。随着入侵者一波又一波的凌厉攻击,他必须寻找保护家人的力量,并弄清自己的真实身份。

Video
ID : 1
Format : HEVC
Format/Info : High Efficiency Video Coding
Format profile : Main 10@L5@Main
HDR format : Dolby Vision, Version 1.0, dvhe.05.06, BL+RPU
Codec ID : V_MPEGH/ISO/HEVC
Duration : 1 h 35 min
Bit rate : 15.2 Mb/s
Width : 3 840 pixels
Height : 2 160 pixels
Display aspect ratio : 16:9
Frame rate mode : Constant
Frame rate : 23.976 (24000/1001) FPS
Color space : YUV
Chroma subsampling : 4:2:0
Bit depth : 10 bits
Bits/(Pixel*Frame) : 0.077
Stream size : 10.1 GiB (96%)
Default : Yes
Forced : No
Color range : Full

Audio
ID : 2
Format : E-AC-3
Format/Info : Enhanced AC-3
Commercial name : Dolby Digital Plus
Codec ID : A_EAC3
Duration : 1 h 35 min
Bit rate mode : Constant
Bit rate : 640 kb/s
Channel(s) : 6 channels
Channel layout : L R C LFE Ls Rs
Sampling rate : 48.0 kHz
Frame rate : 31.250 FPS (1536 SPF)
Compression mode : Lossy
Stream size : 436 MiB (4%)
Language : English
Service kind : Complete Main
Default : Yes
Forced : No

Text #1
ID : 3
Format : UTF-8
Codec ID : S_TEXT/UTF8
Codec ID/Info : UTF-8 Plain Text
Duration : 1 h 32 min
Bit rate : 44 b/s
Frame rate : 0.207 FPS
Count of elements : 1152
Stream size : 30.5 KiB (0%)
Title : [CC]
Language : English
Default : No
Forced : No

Text #2
ID : 4
Format : UTF-8
Codec ID : S_TEXT/UTF8
Codec ID/Info : UTF-8 Plain Text
Duration : 1 h 33 min
Bit rate : 58 b/s
Frame rate : 0.164 FPS
Count of elements : 924
Stream size : 40.5 KiB (0%)
Language : Arabic
Default : No
Forced : No

Text #3
ID : 5
Format : UTF-8
Codec ID : S_TEXT/UTF8
Codec ID/Info : UTF-8 Plain Text
Duration : 1 h 33 min
Bit rate : 31 b/s
Frame rate : 0.152 FPS
Count of elements : 855
Stream size : 21.7 KiB (0%)
Language : Danish
Default : No
Forced : No

Text #4
ID : 6
Format : UTF-8
Codec ID : S_TEXT/UTF8
Codec ID/Info : UTF-8 Plain Text
Duration : 1 h 27 min
Bit rate : 35 b/s
Frame rate : 0.169 FPS
Count of elements : 893
Stream size : 22.8 KiB (0%)
Language : German
Default : No
Forced : No

Text #5
ID : 7
Format : UTF-8
Codec ID : S_TEXT/UTF8
Codec ID/Info : UTF-8 Plain Text
Duration : 1 h 33 min
Bit rate : 53 b/s
Frame rate : 0.164 FPS
Count of elements : 921
Stream size : 36.8 KiB (0%)
Language : Greek
Default : No
Forced : No

Text #6
ID : 8
Format : UTF-8
Codec ID : S_TEXT/UTF8
Codec ID/Info : UTF-8 Plain Text
Duration : 1 h 33 min
Bit rate : 32 b/s
Frame rate : 0.156 FPS
Count of elements : 879
Stream size : 22.0 KiB (0%)
Language : Spanish
Default : No
Forced : No

Text #7
ID : 9
Format : UTF-8
Codec ID : S_TEXT/UTF8
Codec ID/Info : UTF-8 Plain Text
Duration : 1 h 33 min
Bit rate : 31 b/s
Frame rate : 0.157 FPS
Count of elements : 885
Stream size : 21.6 KiB (0%)
Title : European
Language : Spanish
Default : No
Forced : No

Text #8
ID : 10
Format : UTF-8
Codec ID : S_TEXT/UTF8
Codec ID/Info : UTF-8 Plain Text
Duration : 1 h 33 min
Bit rate : 28 b/s
Frame rate : 0.145 FPS
Count of elements : 817
Stream size : 19.9 KiB (0%)
Language : Finnish
Default : No
Forced : No

Text #9
ID : 11
Format : UTF-8
Codec ID : S_TEXT/UTF8
Codec ID/Info : UTF-8 Plain Text
Duration : 1 h 33 min
Bit rate : 37 b/s
Frame rate : 0.156 FPS
Count of elements : 876
Stream size : 25.8 KiB (0%)
Language : French
Default : No
Forced : No

Text #10
ID : 12
Format : UTF-8
Codec ID : S_TEXT/UTF8
Codec ID/Info : UTF-8 Plain Text
Duration : 1 h 33 min
Bit rate : 55 b/s
Frame rate : 0.164 FPS
Count of elements : 925
Stream size : 38.4 KiB (0%)
Language : Hebrew
Default : No
Forced : No

Text #11
ID : 13
Format : UTF-8
Codec ID : S_TEXT/UTF8
Codec ID/Info : UTF-8 Plain Text
Duration : 1 h 33 min
Bit rate : 29 b/s
Frame rate : 0.164 FPS
Count of elements : 920
Stream size : 20.5 KiB (0%)
Language : Indonesian
Default : No
Forced : No

Text #12
ID : 14
Format : UTF-8
Codec ID : S_TEXT/UTF8
Codec ID/Info : UTF-8 Plain Text
Duration : 1 h 33 min
Bit rate : 31 b/s
Frame rate : 0.158 FPS
Count of elements : 889
Stream size : 21.4 KiB (0%)
Language : Italian
Default : No
Forced : No

Text #13
ID : 15
Format : UTF-8
Codec ID : S_TEXT/UTF8
Codec ID/Info : UTF-8 Plain Text
Duration : 1 h 33 min
Bit rate : 28 b/s
Frame rate : 0.172 FPS
Count of elements : 970
Stream size : 19.5 KiB (0%)
Language : Japanese
Default : No
Forced : No

Text #14
ID : 16
Format : UTF-8
Codec ID : S_TEXT/UTF8
Codec ID/Info : UTF-8 Plain Text
Duration : 1 h 33 min
Bit rate : 36 b/s
Frame rate : 0.164 FPS
Count of elements : 922
Stream size : 25.4 KiB (0%)
Language : Korean
Default : No
Forced : No

Text #15
ID : 17
Format : UTF-8
Codec ID : S_TEXT/UTF8
Codec ID/Info : UTF-8 Plain Text
Duration : 1 h 33 min
Bit rate : 31 b/s
Frame rate : 0.161 FPS
Count of elements : 904
Stream size : 21.6 KiB (0%)
Language : Norwegian Bokmal
Default : No
Forced : No

Text #16
ID : 18
Format : UTF-8
Codec ID : S_TEXT/UTF8
Codec ID/Info : UTF-8 Plain Text
Duration : 1 h 28 min
Bit rate : 32 b/s
Frame rate : 0.156 FPS
Count of elements : 823
Stream size : 21.2 KiB (0%)
Language : Dutch
Default : No
Forced : No

Text #17
ID : 19
Format : UTF-8
Codec ID : S_TEXT/UTF8
Codec ID/Info : UTF-8 Plain Text
Duration : 1 h 33 min
Bit rate : 32 b/s
Frame rate : 0.156 FPS
Count of elements : 875
Stream size : 22.0 KiB (0%)
Language : Polish
Default : No
Forced : No

Text #18
ID : 20
Format : UTF-8
Codec ID : S_TEXT/UTF8
Codec ID/Info : UTF-8 Plain Text
Duration : 1 h 33 min
Bit rate : 31 b/s
Frame rate : 0.161 FPS
Count of elements : 904
Stream size : 21.4 KiB (0%)
Language : Portuguese
Default : No
Forced : No

Text #19
ID : 21
Format : UTF-8
Codec ID : S_TEXT/UTF8
Codec ID/Info : UTF-8 Plain Text
Duration : 1 h 33 min
Bit rate : 30 b/s
Frame rate : 0.160 FPS
Count of elements : 898
Stream size : 21.0 KiB (0%)
Title : Brazilian
Language : Portuguese
Default : No
Forced : No

Text #20
ID : 22
Format : UTF-8
Codec ID : S_TEXT/UTF8
Codec ID/Info : UTF-8 Plain Text
Duration : 1 h 33 min
Bit rate : 29 b/s
Frame rate : 0.164 FPS
Count of elements : 923
Stream size : 20.5 KiB (0%)
Language : Romanian
Default : No
Forced : No

Text #21
ID : 23
Format : UTF-8
Codec ID : S_TEXT/UTF8
Codec ID/Info : UTF-8 Plain Text
Duration : 1 h 33 min
Bit rate : 47 b/s
Frame rate : 0.164 FPS
Count of elements : 923
Stream size : 32.7 KiB (0%)
Language : Russian
Default : No
Forced : No

Text #22
ID : 24
Format : UTF-8
Codec ID : S_TEXT/UTF8
Codec ID/Info : UTF-8 Plain Text
Duration : 1 h 28 min
Bit rate : 32 b/s
Frame rate : 0.172 FPS
Count of elements : 907
Stream size : 21.2 KiB (0%)
Language : Swedish
Default : No
Forced : No

Text #23
ID : 25
Format : UTF-8
Codec ID : S_TEXT/UTF8
Codec ID/Info : UTF-8 Plain Text
Duration : 1 h 33 min
Bit rate : 78 b/s
Frame rate : 0.164 FPS
Count of elements : 925
Stream size : 53.6 KiB (0%)
Language : Thai
Default : No
Forced : No

Text #24
ID : 26
Format : UTF-8
Codec ID : S_TEXT/UTF8
Codec ID/Info : UTF-8 Plain Text
Duration : 1 h 33 min
Bit rate : 33 b/s
Frame rate : 0.153 FPS
Count of elements : 861
Stream size : 23.0 KiB (0%)
Language : Turkish
Default : No
Forced : No

Text #25
ID : 27
Format : UTF-8
Codec ID : S_TEXT/UTF8
Codec ID/Info : UTF-8 Plain Text
Duration : 1 h 33 min
Bit rate : 42 b/s
Frame rate : 0.164 FPS
Count of elements : 923
Stream size : 29.5 KiB (0%)
Language : Vietnamese
Default : No
Forced : No

Text #26
ID : 28
Format : UTF-8
Codec ID : S_TEXT/UTF8
Codec ID/Info : UTF-8 Plain Text
Duration : 1 h 33 min
Bit rate : 31 b/s
Frame rate : 0.164 FPS
Count of elements : 920
Stream size : 22.0 KiB (0%)
Title : 中文(简体)
Language : 中文
Default : No
Forced : No

Text #27
ID : 29
Format : UTF-8
Codec ID : S_TEXT/UTF8
Codec ID/Info : UTF-8 Plain Text
Duration : 1 h 33 min
Bit rate : 28 b/s
Frame rate : 0.164 FPS
Count of elements : 925
Stream size : 19.7 KiB (0%)
Title : 中文(繁体)
Language : 中文
Default : No
Forced : No


资源速度为零或资源敏感被和谐时,推荐使用qBittorrent等下载软件,有条件的推荐115更好的下载软件!

下载地址:


游客,如果您要查看本帖隐藏内容请回复

游客,如果您要查看本帖隐藏内容请回复

游客,如果您要查看本帖隐藏内容请回复




上一篇:死亡笔记 [简繁中字] / Extinction (2018) 4K高清版本下载
下一篇:惊天营救 [简繁中字] / Extraction (2020) 4K高清版本下载
回复

使用道具 举报

48

主题

1547

帖子

4451

积分

4K家园VIP

Rank: 9Rank: 9Rank: 9

积分
4451
发表于 2022-7-15 13:04:16 来自手机 | 显示全部楼层
看帖要回,回帖才健康,在踩踩,楼主辛苦了!
回复 支持 反对

使用道具 举报

46

主题

1473

帖子

4255

积分

4K家园VIP

Rank: 9Rank: 9Rank: 9

积分
4255
发表于 2022-7-20 10:32:42 | 显示全部楼层
锄禾日当午,发帖真辛苦。谁知坛中餐,帖帖皆辛苦!
回复 支持 反对

使用道具 举报

2

主题

1423

帖子

4121

积分

4K家园VIP

Rank: 9Rank: 9Rank: 9

积分
4121
发表于 2022-7-21 14:14:15 | 显示全部楼层
4K家园不错,希望这种资源越多越好
回复 支持 反对

使用道具 举报

1

主题

1374

帖子

4140

积分

4K家园VIP

Rank: 9Rank: 9Rank: 9

积分
4140
发表于 2022-7-25 00:11:36 来自手机 | 显示全部楼层
1v1飘过
回复 支持 反对

使用道具 举报

53

主题

1513

帖子

4409

积分

4K家园VIP

Rank: 9Rank: 9Rank: 9

积分
4409
发表于 4 天前 | 显示全部楼层
回复 支持 反对

使用道具 举报

您需要登录后才可以回帖 登录 | 立即注册

本版积分规则

精彩图文
Archiver|手机版|TAG|Sitemap|新帖|专题|联系我们:邮箱: 4kjia.com@gmail.com   

4k家园   ©2019