[4K电影] 他们先杀了我父亲 [简繁中字] (2020) 4K高清版本下载

[复制链接]

2118

主题

2259

帖子

1万

积分

超级版主

Rank: 8Rank: 8

积分
16577
 楼主| 发表于 2022-7-15 13:50:57 | 显示全部楼层 |阅读模式
本帖最后由 最爱4K哟 于 2022-7-15 13:53 编辑

QQ图片20220715134114_副本.png

◎译  名 他们先杀了我父亲:一个柬埔寨女儿的回忆录/弑父:柬埔寨女孩的回忆(台)/他们先杀了我父亲:柬埔寨女孩的回忆(台)/首先,他们杀了我父亲:一个柬埔寨女儿的回忆录/???????? ????????????????????????????????/First They Killed My Father
◎片  名 First They Killed My Father: A Daughter of Cambodia Remembers
◎年  代 2017
◎产  地 柬埔寨/美国
◎类  别 剧情/传记/历史
◎语  言 高棉语/英语
◎上映日期 2017-02-18(暹粒首映)/2017-09-15(美国)
◎IMDb评分 7.1/10 from 18346 users
◎IMDb链接 https://www.imdb.com/title/tt4882376/
◎豆瓣评分 7.6/10 from 7597 users
◎豆瓣链接 https://movie.douban.com/subject/26578144/
◎片  长 136分钟
◎导  演 安吉丽娜·朱莉 Angelina Jolie
◎编  剧 安吉丽娜·朱莉 Angelina Jolie / 翁琅 Loung Ung
◎主  演 Sareum Srey Moch Sareum Srey Moch
       Phoeung Kompheak Phoeung Kompheak
       斯文·索奇塔 Sveng Socheata
       Mun Kimhak Mun Kimhak
       亨·达拉 Heng Dara


◎简  介


  安吉丽娜·朱莉通过Netflix宣布,她将执导该公司出品的全新电影作品《First They Killed My Father》。影片聚焦红色高棉政权时期的柬埔寨,其养子马多克斯将出演。

  影片改编自柬埔寨裔美国女性作家Loung Ung的回忆录《First They Killed My Father: A Daugher of Cambodia Remembers》,讲述了她在柬埔寨红色高棉统治时期的悲惨求生经历。Loung Ung出生于1970年的柬埔寨,5年后,红色高棉(即柬埔寨民主党)成为执政党,建立民主柬埔寨政权,并于随后在柬埔寨展开了近四年的管制时期。在此期间,约有两百万柬埔寨人因为政治迫害、饥荒、劳役、疾病等原因非正常死亡。在这场劫难中Loung Ung的家庭破碎,成为孤儿的她被训练为童子军,而她的兄弟姐妹则被送去劳改营。

◎获奖情况

  第75届金球奖(2018)
  电影类 最佳外语片(提名)

  第71届英国电影学院奖(2018)
  电影奖 最佳非英语片(提名)

  第23届美国评论家选择电影奖(2018)
  最佳外语片(提名)

  第22届金卫星奖(2018)
  电影部门 最佳外语片(提名)

  第21届好莱坞电影奖(2017)
  年度外语片
Video
ID : 1
Format : HEVC
Format/Info : High Efficiency Video Coding
Format profile : Main 10@L5@Main
HDR format : Dolby Vision, Version 1.0, dvhe.05.06, BL+RPU
Codec ID : V_MPEGH/ISO/HEVC
Duration : 2 h 16 min
Bit rate : 15.7 Mb/s
Width : 3 840 pixels
Height : 2 160 pixels
Display aspect ratio : 16:9
Frame rate mode : Constant
Frame rate : 23.976 (24000/1001) FPS
Color space : YUV
Chroma subsampling : 4:2:0
Bit depth : 10 bits
Bits/(Pixel*Frame) : 0.079
Stream size : 15.0 GiB (96%)
Default : Yes
Forced : No
Color range : Full

Audio
ID : 2
Format : E-AC-3
Format/Info : Enhanced AC-3
Commercial name : Dolby Digital Plus
Codec ID : A_EAC3
Duration : 2 h 16 min
Bit rate mode : Constant
Bit rate : 640 kb/s
Channel(s) : 6 channels
Channel layout : L R C LFE Ls Rs
Sampling rate : 48.0 kHz
Frame rate : 31.250 FPS (1536 SPF)
Compression mode : Lossy
Stream size : 626 MiB (4%)
Service kind : Complete Main
Default : Yes
Forced : No

Text #1
ID : 3
Format : UTF-8
Codec ID : S_TEXT/UTF8
Codec ID/Info : UTF-8 Plain Text
Duration : 2 h 8 min
Bit rate : 16 b/s
Frame rate : 0.073 FPS
Count of elements : 560
Stream size : 15.5 KiB (0%)
Language : English
Default : No
Forced : No

Text #2
ID : 4
Format : UTF-8
Codec ID : S_TEXT/UTF8
Codec ID/Info : UTF-8 Plain Text
Duration : 2 h 12 min
Bit rate : 22 b/s
Frame rate : 0.105 FPS
Count of elements : 834
Stream size : 21.7 KiB (0%)
Title : [CC]
Language : English
Default : No
Forced : No

Text #3
ID : 5
Format : UTF-8
Codec ID : S_TEXT/UTF8
Codec ID/Info : UTF-8 Plain Text
Duration : 2 h 15 min
Bit rate : 29 b/s
Frame rate : 0.072 FPS
Count of elements : 590
Stream size : 29.7 KiB (0%)
Language : Arabic
Default : No
Forced : No

Text #4
ID : 6
Format : UTF-8
Codec ID : S_TEXT/UTF8
Codec ID/Info : UTF-8 Plain Text
Duration : 2 h 15 min
Bit rate : 16 b/s
Frame rate : 0.068 FPS
Count of elements : 552
Stream size : 16.2 KiB (0%)
Language : Danish
Default : No
Forced : No

Text #5
ID : 7
Format : UTF-8
Codec ID : S_TEXT/UTF8
Codec ID/Info : UTF-8 Plain Text
Duration : 2 h 15 min
Bit rate : 17 b/s
Frame rate : 0.070 FPS
Count of elements : 572
Stream size : 17.2 KiB (0%)
Language : German
Default : No
Forced : No

Text #6
ID : 8
Format : UTF-8
Codec ID : S_TEXT/UTF8
Codec ID/Info : UTF-8 Plain Text
Duration : 2 h 8 min
Bit rate : 32 b/s
Frame rate : 0.075 FPS
Count of elements : 578
Stream size : 30.5 KiB (0%)
Language : Greek
Default : No
Forced : No

Text #7
ID : 9
Format : UTF-8
Codec ID : S_TEXT/UTF8
Codec ID/Info : UTF-8 Plain Text
Duration : 2 h 15 min
Bit rate : 16 b/s
Frame rate : 0.071 FPS
Count of elements : 575
Stream size : 16.7 KiB (0%)
Language : Spanish
Default : No
Forced : No

Text #8
ID : 10
Format : UTF-8
Codec ID : S_TEXT/UTF8
Codec ID/Info : UTF-8 Plain Text
Duration : 2 h 15 min
Bit rate : 16 b/s
Frame rate : 0.071 FPS
Count of elements : 578
Stream size : 16.9 KiB (0%)
Title : European
Language : Spanish
Default : No
Forced : No

Text #9
ID : 11
Format : UTF-8
Codec ID : S_TEXT/UTF8
Codec ID/Info : UTF-8 Plain Text
Duration : 2 h 15 min
Bit rate : 15 b/s
Frame rate : 0.066 FPS
Count of elements : 536
Stream size : 15.2 KiB (0%)
Language : Finnish
Default : No
Forced : No

Text #10
ID : 12
Format : UTF-8
Codec ID : S_TEXT/UTF8
Codec ID/Info : UTF-8 Plain Text
Duration : 2 h 15 min
Bit rate : 15 b/s
Frame rate : 0.067 FPS
Count of elements : 547
Stream size : 14.9 KiB (0%)
Language : French
Default : No
Forced : No

Text #11
ID : 13
Format : UTF-8
Codec ID : S_TEXT/UTF8
Codec ID/Info : UTF-8 Plain Text
Duration : 2 h 15 min
Bit rate : 27 b/s
Frame rate : 0.073 FPS
Count of elements : 593
Stream size : 27.6 KiB (0%)
Language : Hebrew
Default : No
Forced : No

Text #12
ID : 14
Format : UTF-8
Codec ID : S_TEXT/UTF8
Codec ID/Info : UTF-8 Plain Text
Duration : 2 h 15 min
Bit rate : 38 b/s
Frame rate : 0.071 FPS
Count of elements : 576
Stream size : 38.2 KiB (0%)
Language : Hindi
Default : No
Forced : No

Text #13
ID : 15
Format : UTF-8
Codec ID : S_TEXT/UTF8
Codec ID/Info : UTF-8 Plain Text
Duration : 2 h 15 min
Bit rate : 16 b/s
Frame rate : 0.071 FPS
Count of elements : 576
Stream size : 16.3 KiB (0%)
Language : Italian
Default : No
Forced : No

Text #14
ID : 16
Format : UTF-8
Codec ID : S_TEXT/UTF8
Codec ID/Info : UTF-8 Plain Text
Duration : 2 h 15 min
Bit rate : 17 b/s
Frame rate : 0.075 FPS
Count of elements : 608
Stream size : 17.2 KiB (0%)
Language : Japanese
Default : No
Forced : No

Text #15
ID : 17
Format : UTF-8
Codec ID : S_TEXT/UTF8
Codec ID/Info : UTF-8 Plain Text
Duration : 2 h 15 min
Bit rate : 16 b/s
Frame rate : 0.071 FPS
Count of elements : 576
Stream size : 16.0 KiB (0%)
Language : Korean
Default : No
Forced : No

Text #16
ID : 18
Format : UTF-8
Codec ID : S_TEXT/UTF8
Codec ID/Info : UTF-8 Plain Text
Duration : 2 h 15 min
Bit rate : 15 b/s
Frame rate : 0.068 FPS
Count of elements : 555
Stream size : 15.3 KiB (0%)
Language : Norwegian Bokmal
Default : No
Forced : No

Text #17
ID : 19
Format : UTF-8
Codec ID : S_TEXT/UTF8
Codec ID/Info : UTF-8 Plain Text
Duration : 2 h 15 min
Bit rate : 16 b/s
Frame rate : 0.065 FPS
Count of elements : 527
Stream size : 16.3 KiB (0%)
Language : Dutch
Default : No
Forced : No

Text #18
ID : 20
Format : UTF-8
Codec ID : S_TEXT/UTF8
Codec ID/Info : UTF-8 Plain Text
Duration : 2 h 15 min
Bit rate : 14 b/s
Frame rate : 0.070 FPS
Count of elements : 573
Stream size : 14.6 KiB (0%)
Language : Polish
Default : No
Forced : No

Text #19
ID : 21
Format : UTF-8
Codec ID : S_TEXT/UTF8
Codec ID/Info : UTF-8 Plain Text
Duration : 2 h 15 min
Bit rate : 17 b/s
Frame rate : 0.071 FPS
Count of elements : 576
Stream size : 17.0 KiB (0%)
Language : Portuguese
Default : No
Forced : No

Text #20
ID : 22
Format : UTF-8
Codec ID : S_TEXT/UTF8
Codec ID/Info : UTF-8 Plain Text
Duration : 2 h 15 min
Bit rate : 16 b/s
Frame rate : 0.071 FPS
Count of elements : 576
Stream size : 16.6 KiB (0%)
Title : Brazilian
Language : Portuguese
Default : No
Forced : No

Text #21
ID : 23
Format : UTF-8
Codec ID : S_TEXT/UTF8
Codec ID/Info : UTF-8 Plain Text
Duration : 2 h 15 min
Bit rate : 17 b/s
Frame rate : 0.070 FPS
Count of elements : 572
Stream size : 17.2 KiB (0%)
Language : Romanian
Default : No
Forced : No

Text #22
ID : 24
Format : UTF-8
Codec ID : S_TEXT/UTF8
Codec ID/Info : UTF-8 Plain Text
Duration : 2 h 15 min
Bit rate : 15 b/s
Frame rate : 0.070 FPS
Count of elements : 569
Stream size : 15.9 KiB (0%)
Language : Swedish
Default : No
Forced : No

Text #23
ID : 25
Format : UTF-8
Codec ID : S_TEXT/UTF8
Codec ID/Info : UTF-8 Plain Text
Duration : 2 h 15 min
Bit rate : 37 b/s
Frame rate : 0.071 FPS
Count of elements : 578
Stream size : 37.7 KiB (0%)
Language : Thai
Default : No
Forced : No

Text #24
ID : 26
Format : UTF-8
Codec ID : S_TEXT/UTF8
Codec ID/Info : UTF-8 Plain Text
Duration : 2 h 8 min
Bit rate : 16 b/s
Frame rate : 0.074 FPS
Count of elements : 573
Stream size : 16.0 KiB (0%)
Language : Turkish
Default : No
Forced : No

Text #25
ID : 27
Format : UTF-8
Codec ID : S_TEXT/UTF8
Codec ID/Info : UTF-8 Plain Text
Duration : 2 h 15 min
Bit rate : 21 b/s
Frame rate : 0.071 FPS
Count of elements : 582
Stream size : 21.6 KiB (0%)
Language : Vietnamese
Default : No
Forced : No

Text #26
ID : 28
Format : UTF-8
Codec ID : S_TEXT/UTF8
Codec ID/Info : UTF-8 Plain Text
Duration : 2 h 15 min
Bit rate : 14 b/s
Frame rate : 0.071 FPS
Count of elements : 575
Stream size : 14.3 KiB (0%)
Title : 中文(简体)
Language : 中文
Default : No
Forced : No

Text #27
ID : 29
Format : UTF-8
Codec ID : S_TEXT/UTF8
Codec ID/Info : UTF-8 Plain Text
Duration : 2 h 15 min
Bit rate : 13 b/s
Frame rate : 0.072 FPS
Count of elements : 588
Stream size : 13.1 KiB (0%)
Title : 中文(繁体)
Language : 中文
Default : No
Forced : No


资源速度为零或资源敏感被和谐时,推荐使用qBittorrent等下载软件,有条件的推荐115更好的下载软件!

下载地址:


游客,如果您要查看本帖隐藏内容请回复

游客,如果您要查看本帖隐藏内容请回复

游客,如果您要查看本帖隐藏内容请回复



相关其他4K高清版本链接:[4K首发资源] 他们先杀了我父亲 (内封中字) 4K高清下载/9.54GB





上一篇:旅馆恋曲 [简繁中字] / Falling Inn Love (2019) 4K高清版本下载
下一篇:断裂 [简繁中字] / Fractured (2019) 4K高清版本下载
回复

使用道具 举报

40

主题

1525

帖子

4337

积分

4K家园VIP

Rank: 9Rank: 9Rank: 9

积分
4337
发表于 2022-7-15 13:51:00 来自手机 | 显示全部楼层
这么强,支持楼主,佩服
回复 支持 反对

使用道具 举报

1

主题

1375

帖子

3979

积分

4K家园VIP

Rank: 9Rank: 9Rank: 9

积分
3979
发表于 2022-7-26 14:05:50 | 显示全部楼层
感谢楼主发帖,前排顶起
回复 支持 反对

使用道具 举报

您需要登录后才可以回帖 登录 | 立即注册

本版积分规则

精彩图文
Archiver|手机版|TAG|Sitemap|新帖|专题|联系我们:邮箱: 4kjia.com@gmail.com   

4k家园   ©2019