[4K电影] 鬼影特攻:以暴制暴 [简繁中字] (2021) 4K高清版本下载

[复制链接]

2118

主题

2259

帖子

1万

积分

超级版主

Rank: 8Rank: 8

积分
16577
 楼主| 发表于 2022-7-15 15:59:30 | 显示全部楼层 |阅读模式
QQ图片20220715154843_副本.png

◎译  名 鬼影特攻:以暴制暴 / Six Underground / 六尺之下 / 地下6号 / 飞天遁地
◎片  名 6 Underground
◎年  代 2019
◎产  地 美国
◎类  别 动作 / 惊悚
◎语  言 英语
◎上映日期 2019-12-13(美国)
◎IMDb评分 6.1/10 from 171463 users
◎IMDb链接 https://www.imdb.com/title/tt8106534
◎豆瓣评分 6.4/10 from 33362 users
◎豆瓣链接 https://movie.douban.com/subject/30163500/
◎整理链接   http://bbs.homefei.me/read-htm-tid-196581.html
◎片  长 128分钟
◎导  演 迈克尔·贝 Michael Bay
◎编  剧 瑞特·里斯 Rhett Reese / 保罗·韦尼克 Paul Wernick
◎主  演 瑞恩·雷诺兹 Ryan Reynolds
      本·哈迪 Ben Hardy
      梅拉尼·罗兰 Mélanie Laurent
      亚德里亚·霍纳 Adria Arjona
      戴夫·弗兰科 Dave Franco
      科里·霍金斯 Corey Hawkins
      塞巴斯蒂安·罗奇 Sebastian Roché
      曼努埃尔·加西亚-鲁尔福 Manuel Garcia-Rulfo
      詹姆斯·莫瑞 James Murray
      利奥·拉兹 Lior Raz
      埃莱娜·卡多纳 Hélène Cardona
      佩曼·莫阿迪 Peyman Moadi
      尤里·科洛科利尼科夫 Yuri Kolokolnikov
      金·柯尔德 Kim Kold
      丹尼尔·阿德博伊加 Daniel Adegboyega
      詹姆斯·卡罗尔·乔丹 James Carroll Jordan
      康斯坦丁·格雷戈里 Constantine Gregory
      彼得·阿佩塞拉 Peter Arpesella
      托多尔·乔丹诺夫 Todor Jordanov
      里纳特·希什马塔林 Rinat Khismatouline
      莉迪亚·佛朗哥 Lídia Franco
      罗杰·内瓦雷斯 Roger Nevares
      Shubham Saraf Shubham Saraf
      Sitara Attaie Sitara Attaie
      巴哈拉·戈莱斯坦尼 Bahara Golestani


◎简  介 

  来自世界各地的六人,个个都是各自领域的佼佼者。他们之所以被选中,不单是因为能力出众,还在于其独特的志向:他们想抹杀自己的过去以改变未来。一位神秘的领袖(瑞恩·雷诺兹饰)将他们召集到一起组成了这个团队,他毕生唯一的使命就是确保即使他和自己的同伴会被遗忘,但也要让人们永远铭记他们所做的一切。


获奖情况

  第7届美国化妆及发型设计工会奖(2020)
  电视电影/特别节目类最佳年代戏发型设计(提名)
  电视电影/特别节目类最佳特效化妆(提名)

Video
ID : 1
Format : HEVC
Format/Info : High Efficiency Video Coding
Format profile : Main 10@L5@Main
HDR format : Dolby Vision, Version 1.0, dvhe.05.06, BL+RPU
Codec ID : dvhe
Codec ID/Info : High Efficiency Video Coding with Dolby Vision
Duration : 2 h 8 min
Bit rate : 16.0 Mb/s
Width : 3 840 pixels
Height : 2 160 pixels
Display aspect ratio : 16:9
Frame rate mode : Constant
Frame rate : 23.976 (24000/1001) FPS
Color space : YUV
Chroma subsampling : 4:2:0
Bit depth : 10 bits
Bits/(Pixel*Frame) : 0.080
Stream size : 14.4 GiB (95%)
Default : Yes
Alternate group : 1
Encoded date : UTC 2022-07-14 16:20:19
Tagged date : UTC 2022-07-14 16:23:40
Color range : Full
Codec configuration box : hvcC+dvcC

Audio
ID : 2
Format : E-AC-3 JOC
Format/Info : Enhanced AC-3 with Joint Object Coding
Commercial name : Dolby Digital Plus with Dolby Atmos
Codec ID : ec-3
Duration : 2 h 8 min
Bit rate mode : Constant
Bit rate : 768 kb/s
Maximum bit rate : 811 kb/s
Channel(s) : 6 channels
Channel layout : L R C LFE Ls Rs
Sampling rate : 48.0 kHz
Frame rate : 31.250 FPS (1536 SPF)
Compression mode : Lossy
Stream size : 708 MiB (5%)
Title : English
Language : English
Service kind : Complete Main
Default : Yes
Alternate group : 1
Tagged date : UTC 2022-07-14 16:23:40
Complexity index : Not present / 16
Number of dynamic objects : 15
Bed channel count : 1 channel
Bed channel configuration : LFE

Text #1
ID : 3
Format : Timed Text
Codec ID : tx3g
Duration : 2 h 7 min
Bit rate mode : Variable
Bit rate : 82 b/s
Frame rate : 0.574 FPS
Stream size : 76.1 KiB (0%)
Title : English
Language : English
Forced : No
Encoded date : UTC 2022-07-14 16:23:37
Tagged date : UTC 2022-07-14 16:23:40

Text #2
ID : 4
Format : Timed Text
Codec ID : tx3g
Duration : 2 h 8 min
Bit rate mode : Variable
Bit rate : 105 b/s
Frame rate : 0.456 FPS
Stream size : 98.2 KiB (0%)
Title : Arabic
Language : Arabic
Forced : No
Encoded date : UTC 2022-07-14 16:23:37
Tagged date : UTC 2022-07-14 16:23:40

Text #3
ID : 5
Format : Timed Text
Codec ID : tx3g
Duration : 2 h 7 min
Bit rate mode : Variable
Bit rate : 73 b/s
Frame rate : 0.460 FPS
Stream size : 67.9 KiB (0%)
Title : 中文(简体)
Language : 中文
Forced : No
Encoded date : UTC 2022-07-14 16:23:37
Tagged date : UTC 2022-07-14 16:23:40

Text #4
ID : 6
Format : Timed Text
Codec ID : tx3g
Duration : 2 h 5 min
Bit rate mode : Variable
Bit rate : 64 b/s
Frame rate : 0.469 FPS
Stream size : 58.5 KiB (0%)
Title : 中文(繁体)
Language : 中文
Forced : No
Encoded date : UTC 2022-07-14 16:23:37
Tagged date : UTC 2022-07-14 16:23:40


Text #5
ID : 7
Format : Timed Text
Codec ID : tx3g
Duration : 2 h 5 min
Bit rate mode : Variable
Bit rate : 55 b/s
Frame rate : 0.449 FPS
Stream size : 51.0 KiB (0%)
Title : Czech
Language : Czech
Forced : No
Encoded date : UTC 2022-07-14 16:23:38
Tagged date : UTC 2022-07-14 16:23:40

Text #6
ID : 8
Format : Timed Text
Codec ID : tx3g
Duration : 2 h 5 min
Bit rate mode : Variable
Bit rate : 57 b/s
Frame rate : 0.433 FPS
Stream size : 52.5 KiB (0%)
Title : Danish
Language : Danish
Forced : No
Encoded date : UTC 2022-07-14 16:23:38
Tagged date : UTC 2022-07-14 16:23:40

Text #7
ID : 9
Format : Timed Text
Codec ID : tx3g
Duration : 2 h 5 min
Bit rate mode : Variable
Bit rate : 56 b/s
Frame rate : 0.370 FPS
Stream size : 51.7 KiB (0%)
Title : Dutch
Language : Dutch
Forced : No
Encoded date : UTC 2022-07-14 16:23:38
Tagged date : UTC 2022-07-14 16:23:40

Text #8
ID : 10
Format : Timed Text
Codec ID : tx3g
Duration : 2 h 5 min
Bit rate mode : Variable
Bit rate : 56 b/s
Frame rate : 0.392 FPS
Stream size : 51.2 KiB (0%)
Title : Finnish
Language : Finnish
Forced : No
Encoded date : UTC 2022-07-14 16:23:38
Tagged date : UTC 2022-07-14 16:23:40

Text #9
ID : 11
Format : Timed Text
Codec ID : tx3g
Duration : 2 h 8 min
Bit rate mode : Variable
Bit rate : 60 b/s
Frame rate : 0.421 FPS
Stream size : 56.1 KiB (0%)
Title : French
Language : French
Forced : No
Encoded date : UTC 2022-07-14 16:23:38
Tagged date : UTC 2022-07-14 16:23:40

Text #10
ID : 12
Format : Timed Text
Codec ID : tx3g
Duration : 2 h 5 min
Bit rate mode : Variable
Bit rate : 62 b/s
Frame rate : 0.436 FPS
Stream size : 57.3 KiB (0%)
Title : German
Language : German
Forced : No
Encoded date : UTC 2022-07-14 16:23:38
Tagged date : UTC 2022-07-14 16:23:40

Text #11
ID : 13
Format : Timed Text
Codec ID : tx3g
Duration : 2 h 5 min
Bit rate mode : Variable
Bit rate : 95 b/s
Frame rate : 0.455 FPS
Stream size : 87.2 KiB (0%)
Title : Greek
Language : Greek
Forced : No
Encoded date : UTC 2022-07-14 16:23:38
Tagged date : UTC 2022-07-14 16:23:40

Text #12
ID : 14
Format : Timed Text
Codec ID : tx3g
Duration : 2 h 8 min
Bit rate mode : Variable
Bit rate : 100 b/s
Frame rate : 0.444 FPS
Stream size : 94.3 KiB (0%)
Title : Hebrew
Language : Hebrew
Forced : No
Encoded date : UTC 2022-07-14 16:23:38
Tagged date : UTC 2022-07-14 16:23:40

Text #13
ID : 15
Format : Timed Text
Codec ID : tx3g
Duration : 2 h 5 min
Bit rate mode : Variable
Bit rate : 158 b/s
Frame rate : 0.465 FPS
Stream size : 145 KiB (0%)
Title : Hindi
Language : Hindi
Forced : No
Encoded date : UTC 2022-07-14 16:23:38
Tagged date : UTC 2022-07-14 16:23:40

Text #14
ID : 16
Format : Timed Text
Codec ID : tx3g
Duration : 2 h 5 min
Bit rate mode : Variable
Bit rate : 59 b/s
Frame rate : 0.441 FPS
Stream size : 53.9 KiB (0%)
Title : Hungarian
Language : Hungarian
Forced : No
Encoded date : UTC 2022-07-14 16:23:38
Tagged date : UTC 2022-07-14 16:23:40

Text #15
ID : 17
Format : Timed Text
Codec ID : tx3g
Duration : 2 h 8 min
Bit rate mode : Variable
Bit rate : 56 b/s
Frame rate : 0.453 FPS
Stream size : 52.6 KiB (0%)
Title : Indonesian
Language : Indonesian
Forced : No
Encoded date : UTC 2022-07-14 16:23:38
Tagged date : UTC 2022-07-14 16:23:40

Text #16
ID : 18
Format : Timed Text
Codec ID : tx3g
Duration : 2 h 5 min
Bit rate mode : Variable
Bit rate : 57 b/s
Frame rate : 0.460 FPS
Stream size : 52.5 KiB (0%)
Title : Italian
Language : Italian
Forced : No
Encoded date : UTC 2022-07-14 16:23:39
Tagged date : UTC 2022-07-14 16:23:40

Text #17
ID : 19
Format : Timed Text
Codec ID : tx3g
Duration : 2 h 7 min
Bit rate mode : Variable
Bit rate : 54 b/s
Frame rate : 0.461 FPS
Stream size : 50.6 KiB (0%)
Title : Japanese
Language : Japanese
Forced : No
Encoded date : UTC 2022-07-14 16:23:39
Tagged date : UTC 2022-07-14 16:23:40

Text #18
ID : 20
Format : Timed Text
Codec ID : tx3g
Duration : 2 h 8 min
Bit rate mode : Variable
Bit rate : 68 b/s
Frame rate : 0.456 FPS
Stream size : 63.6 KiB (0%)
Title : Korean
Language : Korean
Forced : No
Encoded date : UTC 2022-07-14 16:23:39
Tagged date : UTC 2022-07-14 16:23:40

Text #19
ID : 21
Format : Timed Text
Codec ID : tx3g
Duration : 2 h 5 min
Bit rate mode : Variable
Bit rate : 54 b/s
Frame rate : 0.440 FPS
Stream size : 49.6 KiB (0%)
Title : Norwegian
Language : Norwegian Bokmal
Forced : No
Encoded date : UTC 2022-07-14 16:23:39
Tagged date : UTC 2022-07-14 16:23:40

Text #20
ID : 22
Format : Timed Text
Codec ID : tx3g
Duration : 2 h 5 min
Bit rate mode : Variable
Bit rate : 52 b/s
Frame rate : 0.455 FPS
Stream size : 48.2 KiB (0%)
Title : Polish
Language : Polish
Forced : No
Encoded date : UTC 2022-07-14 16:23:39
Tagged date : UTC 2022-07-14 16:23:40

Text #21
ID : 23
Format : Timed Text
Codec ID : tx3g
Duration : 2 h 5 min
Bit rate mode : Variable
Bit rate : 62 b/s
Frame rate : 0.457 FPS
Stream size : 57.2 KiB (0%)
Title : Portuguese
Language : Portuguese
Forced : No
Encoded date : UTC 2022-07-14 16:23:39
Tagged date : UTC 2022-07-14 16:23:40

Text #22
ID : 24
Format : Timed Text
Codec ID : tx3g
Duration : 2 h 5 min
Bit rate mode : Variable
Bit rate : 55 b/s
Frame rate : 0.445 FPS
Stream size : 50.3 KiB (0%)
Title : Portuguese
Language : Portuguese
Forced : No
Encoded date : UTC 2022-07-14 16:23:39
Tagged date : UTC 2022-07-14 16:23:40

Text #23
ID : 25
Format : Timed Text
Codec ID : tx3g
Duration : 2 h 5 min
Bit rate mode : Variable
Bit rate : 66 b/s
Frame rate : 0.444 FPS
Stream size : 60.3 KiB (0%)
Title : Romanian
Language : Romanian
Forced : No
Encoded date : UTC 2022-07-14 16:23:39
Tagged date : UTC 2022-07-14 16:23:40

Text #24
ID : 26
Format : Timed Text
Codec ID : tx3g
Duration : 2 h 5 min
Bit rate mode : Variable
Bit rate : 91 b/s
Frame rate : 0.436 FPS
Stream size : 83.8 KiB (0%)
Title : Russian
Language : Russian
Forced : No
Encoded date : UTC 2022-07-14 16:23:39
Tagged date : UTC 2022-07-14 16:23:40

Text #25
ID : 27
Format : Timed Text
Codec ID : tx3g
Duration : 2 h 8 min
Bit rate mode : Variable
Bit rate : 59 b/s
Frame rate : 0.446 FPS
Stream size : 55.5 KiB (0%)
Title : Spanish-EU
Language : Spanish
Forced : No
Encoded date : UTC 2022-07-14 16:23:39
Tagged date : UTC 2022-07-14 16:23:40

Text #26
ID : 28
Format : Timed Text
Codec ID : tx3g
Duration : 2 h 5 min
Bit rate mode : Variable
Bit rate : 57 b/s
Frame rate : 0.457 FPS
Stream size : 52.3 KiB (0%)
Title : Spanish-EU
Language : Spanish
Forced : No
Encoded date : UTC 2022-07-14 16:23:39
Tagged date : UTC 2022-07-14 16:23:40

Text #27
ID : 29
Format : Timed Text
Codec ID : tx3g
Duration : 2 h 5 min
Bit rate mode : Variable
Bit rate : 57 b/s
Frame rate : 0.408 FPS
Stream size : 52.4 KiB (0%)
Title : Swedish
Language : Swedish
Forced : No
Encoded date : UTC 2022-07-14 16:23:39
Tagged date : UTC 2022-07-14 16:23:40

Text #28
ID : 30
Format : Timed Text
Codec ID : tx3g
Duration : 2 h 5 min
Bit rate mode : Variable
Bit rate : 154 b/s
Frame rate : 0.465 FPS
Stream size : 142 KiB (0%)
Title : Thai
Language : Thai
Forced : No
Encoded date : UTC 2022-07-14 16:23:40
Tagged date : UTC 2022-07-14 16:23:40

Text #29
ID : 31
Format : Timed Text
Codec ID : tx3g
Duration : 2 h 8 min
Bit rate mode : Variable
Bit rate : 56 b/s
Frame rate : 0.425 FPS
Stream size : 52.9 KiB (0%)
Title : Turkish
Language : Turkish
Forced : No
Encoded date : UTC 2022-07-14 16:23:40
Tagged date : UTC 2022-07-14 16:23:40

Text #30
ID : 32
Format : Timed Text
Codec ID : tx3g
Duration : 2 h 8 min
Bit rate mode : Variable
Bit rate : 78 b/s
Frame rate : 0.449 FPS
Stream size : 73.0 KiB (0%)
Title : Vietnamese
Language : Vietnamese
Forced : No
Encoded date : UTC 2022-07-14 16:23:40
Tagged date : UTC 2022-07-14 16:23:40


资源速度为零或资源敏感被和谐时,推荐使用qBittorrent等下载软件,有条件的推荐115更好的下载软件!

下载地址:


游客,如果您要查看本帖隐藏内容请回复

游客,如果您要查看本帖隐藏内容请回复





上一篇:爱很难 [简繁中字] / Love Hard (2021) 4K高清版本下载
下一篇:22英里 [简繁中字] / Mile 22 (2018) 4K高清版本下载
回复

使用道具 举报

3

主题

1351

帖子

4077

积分

4K家园VIP

Rank: 9Rank: 9Rank: 9

积分
4077
发表于 2022-7-15 15:59:34 | 显示全部楼层
广告位,,坐下看看
回复 支持 反对

使用道具 举报

51

主题

1410

帖子

4062

积分

4K家园VIP

Rank: 9Rank: 9Rank: 9

积分
4062
发表于 2022-7-15 20:47:26 来自手机 | 显示全部楼层
嘘,低调。
回复 支持 反对

使用道具 举报

0

主题

5

帖子

25

积分

新手上路

Rank: 1

积分
25
发表于 2022-7-15 21:26:32 | 显示全部楼层
下来看看
回复

使用道具 举报

1

主题

1395

帖子

3995

积分

4K家园VIP

Rank: 9Rank: 9Rank: 9

积分
3995
发表于 2022-7-20 22:06:45 | 显示全部楼层
高手啊
回复 支持 反对

使用道具 举报

40

主题

1513

帖子

4351

积分

4K家园VIP

Rank: 9Rank: 9Rank: 9

积分
4351
发表于 2022-7-24 16:26:29 | 显示全部楼层
看着好像不错
回复 支持 反对

使用道具 举报

1

主题

1352

帖子

4074

积分

4K家园VIP

Rank: 9Rank: 9Rank: 9

积分
4074
发表于 2022-7-27 20:50:22 | 显示全部楼层
高手云集 果断围观
回复 支持 反对

使用道具 举报

您需要登录后才可以回帖 登录 | 立即注册

本版积分规则

精彩图文
Archiver|手机版|TAG|Sitemap|新帖|专题|联系我们:邮箱: 4kjia.com@gmail.com   

4k家园   ©2019