[4K电影] 光灵 [简繁中字] / Bright (2017) 4K高清版本下载

[复制链接]

2118

主题

2259

帖子

1万

积分

超级版主

Rank: 8Rank: 8

积分
16577
 楼主| 发表于 2022-7-15 16:19:06 | 显示全部楼层 |阅读模式
本帖最后由 最爱4K哟 于 2022-7-15 16:23 编辑

QQ图片20220715161021_副本.png

◎标  题 光灵
◎译  名 明亮
◎片  名 Bright
◎年  代 2017
◎产  地 美国
◎类  别 动作 / 犯罪 / 奇幻
◎语  言 英语
◎上映日期 2017-12-22(美国)
◎IMDb评分 6.3/10 (179780人评价)
◎IMDb链接 https://www.imdb.com/title/tt5519340/
◎豆瓣评分 6.4/10 (15192人评价)
◎豆瓣链接 https://movie.douban.com/subject/26739551/
◎片  长 117分钟
◎导  演 大卫·阿耶 David Ayer
◎编  剧 马克斯·兰迪斯 Max Landis
◎演  员 威尔·史密斯 Will Smith
       乔尔·埃哲顿 Joel Edgerton
       劳米·拉佩斯 Noomi Rapace
       埃德加·拉米雷兹 Édgar Ramírez
       露西·弗莱 Lucy Fry
       吴青芸 Thanh Van Ngo
       亚历克斯·梅拉兹 Alex Meraz
       海皮·安德森 Happy Anderson
       伊克·巴里霍尔兹 Ike Barinholtz
       道恩·奥利弗瑞 Dawn Olivieri
       马特·杰拉德 Matt Gerald
       赵牡丹 Margaret Cho
       约瑟夫·皮库伊罗 Joseph Piccuirro
       布拉德·威廉姆·亨克 Brad William Henke
       杰伊·埃尔南德斯 Jay Hernandez
       恩里克·穆西安诺 Enrique Murciano
       斯嘉丽·斯宾塞 Scarlet Spencer
       安德里亚·纳维多 Andrea Navedo
       鲍比·纳德利 Bobby Naderi
       卡洛斯·利纳雷斯 Carlos Linares
       芭妮·里维拉 Bunnie Rivera
       贝利·爱德华斯 Bailey Edwards
       路易斯·蒙卡达 Luis Moncada
       克里斯·勃朗宁 Chris Browning
       肯尼斯·崔 Kenneth Choi
       梅根 Megan Le


◎简  介


    在另一个现今世界里,人类、兽人、精灵和仙子自创世以来一直和平共处。《光灵》这部跨领域的动作电影讲述两个背景截然不同的警探:Ward(威尔·史密斯 Will Smith 饰)和 Jakoby(乔尔·埃哲顿 Joel Edgerton 饰),在一次例行夜间巡逻中,遇上了将会改变未来和他们所处世界的黑暗势力。
Video
ID : 1
Format : HEVC
Format/Info : High Efficiency Video Coding
Format profile : Main 10@L5@Main
HDR format : SMPTE ST 2086, HDR10 compatible
Codec ID : V_MPEGH/ISO/HEVC
Duration : 1 h 57 min
Bit rate : 11.9 Mb/s
Width : 3 840 pixels
Height : 1 664 pixels
Display aspect ratio : 2.35:1
Frame rate mode : Constant
Frame rate : 24.000 FPS
Color space : YUV
Chroma subsampling : 4:2:0
Bit depth : 10 bits
Bits/(Pixel*Frame) : 0.078
Stream size : 9.78 GiB (96%)
Writing library : x265 2.6+37-1949157705ce:[Windows][GCC 6.3.0][64 bit] 10bit
Encoding settings : cpuid=1050111 / frame-threads=5 / numa-pools=16,16 / wpp / no-pmode / no-pme / no-psnr / no-ssim / log-level=2 / input-csp=1 / input-res=3840x1664 / interlace=0 / total-frames=168822 / level-idc=0 / high-tier=1 / uhd-bd=0 / ref=5 / no-allow-non-conformance / repeat-headers / annexb / no-aud / no-hrd / info / hash=0 / no-temporal-layers / open-gop / min-keyint=24 / keyint=250 / gop-lookahead=0 / bframes=8 / b-adapt=2 / b-pyramid / bframe-bias=0 / rc-lookahead=40 / lookahead-slices=0 / scenecut=40 / radl=0 / no-intra-refresh / ctu=64 / min-cu-size=8 / rect / amp / max-tu-size=32 / tu-inter-depth=3 / tu-intra-depth=3 / limit-tu=4 / rdoq-level=2 / dynamic-rd=0.00 / no-ssim-rd / signhide / no-tskip / nr-intra=0 / nr-inter=0 / no-constrained-intra / strong-intra-smoothing / max-merge=4 / limit-refs=1 / limit-modes / me=3 / subme=5 / merange=57 / temporal-mvp / weightp / weightb / no-analyze-src-pics / deblock=-3:-3 / sao / no-sao-non-deblock / rd=6 / no-early-skip / rskip / no-fast-intra / no-tskip-fast / no-cu-lossless / b-intra / no-splitrd-skip / rdpenalty=0 / psy-rd=2.00 / psy-rdoq=1.00 / no-rd-refine / no-lossless / cbqpoffs=0 / crqpoffs=0 / rc=crf / crf=18.0 / qcomp=0.80 / qpstep=4 / stats-write=0 / stats-read=0 / ipratio=1.40 / pbratio=1.30 / aq-mode=3 / aq-strength=1.00 / cutree / zone-count=0 / no-strict-cbr / qg-size=16 / no-rc-grain / qpmax=69 / qpmin=0 / no-const-vbv / sar=0 / overscan=0 / videoformat=5 / range=0 / colorprim=9 / transfer=16 / colormatrix=9 / chromaloc=0 / display-window=0 / master-display=G(13250,34500)B(7500,3000)R(34000,16000)WP(15635,16450)L(40000000,50) / max-cll=4076,1859 / min-luma=0 / max-luma=1023 / log2-max-poc-lsb=8 / vui-timing-info / vui-hrd-info / slices=1 / no-opt-qp-pps / no-opt-ref-list-length-pps / no-multi-pass-opt-rps / scenecut-bias=0.05 / no-opt-cu-delta-qp / no-aq-motion / hdr / hdr-opt / no-dhdr10-opt / analysis-reuse-level=5 / scale-factor=0 / refine-intra=0 / refine-inter=0 / refine-mv=0 / no-limit-sao / ctu-info=0 / no-lowpass-dct / refine-mv-type=0 / copy-pic=1
Default : Yes
Forced : No
Color range : Limited
Color primaries : BT.2020
Transfer characteristics : PQ
Matrix coefficients : BT.2020 non-constant
Mastering display color primaries : Display P3
Mastering display luminance : min: 0.0050 cd/m2, max: 4000 cd/m2
Maximum Content Light Level : 4076 cd/m2
Maximum Frame-Average Light Level : 1859 cd/m2

Audio
ID : 2
Format : E-AC-3 JOC
Format/Info : Enhanced AC-3 with Joint Object Coding
Commercial name : Dolby Digital Plus with Dolby Atmos
Codec ID : A_EAC3
Duration : 1 h 57 min
Bit rate mode : Constant
Bit rate : 448 kb/s
Channel(s) : 6 channels
Channel layout : L R C LFE Ls Rs
Sampling rate : 48.0 kHz
Frame rate : 31.250 FPS (1536 SPF)
Compression mode : Lossy
Stream size : 376 MiB (4%)
Language : English
Service kind : Complete Main
Default : Yes
Forced : No
Complexity index : 16
Number of dynamic objects : 15
Bed channel count : 1 channel
Bed channel configuration : LFE

Text #1
ID : 3
Format : UTF-8
Codec ID : S_TEXT/UTF8
Codec ID/Info : UTF-8 Plain Text
Duration : 1 h 56 min
Bit rate : 63 b/s
Frame rate : 0.239 FPS
Count of elements : 1672
Stream size : 53.9 KiB (0%)
Language : English
Default : No
Forced : No

Text #2
ID : 4
Format : UTF-8
Codec ID : S_TEXT/UTF8
Codec ID/Info : UTF-8 Plain Text
Duration : 1 h 56 min
Bit rate : 76 b/s
Frame rate : 0.279 FPS
Count of elements : 1954
Stream size : 65.4 KiB (0%)
Title : SDH
Language : English
Default : Yes
Forced : No

Text #3
ID : 5
Format : UTF-8
Codec ID : S_TEXT/UTF8
Codec ID/Info : UTF-8 Plain Text
Duration : 1 h 16 min
Bit rate : 2 b/s
Frame rate : 0.013 FPS
Count of elements : 62
Stream size : 1.30 KiB (0%)
Title : Forced
Language : English
Default : No
Forced : No

Text #4
ID : 6
Format : UTF-8
Codec ID : S_TEXT/UTF8
Codec ID/Info : UTF-8 Plain Text
Duration : 1 h 50 min
Bit rate : 105 b/s
Frame rate : 0.242 FPS
Count of elements : 1606
Stream size : 84.9 KiB (0%)
Language : Arabic
Default : No
Forced : No

Text #5
ID : 7
Format : UTF-8
Codec ID : S_TEXT/UTF8
Codec ID/Info : UTF-8 Plain Text
Duration : 1 h 56 min
Bit rate : 94 b/s
Frame rate : 0.241 FPS
Count of elements : 1683
Stream size : 80.3 KiB (0%)
Language : Bulgarian
Default : No
Forced : No

Text #6
ID : 8
Format : UTF-8
Codec ID : S_TEXT/UTF8
Codec ID/Info : UTF-8 Plain Text
Duration : 1 h 50 min
Bit rate : 50 b/s
Frame rate : 0.225 FPS
Count of elements : 1491
Stream size : 40.6 KiB (0%)
Language : Danish
Default : No
Forced : No

Text #7
ID : 9
Format : UTF-8
Codec ID : S_TEXT/UTF8
Codec ID/Info : UTF-8 Plain Text
Duration : 1 h 50 min
Bit rate : 55 b/s
Frame rate : 0.229 FPS
Count of elements : 1518
Stream size : 44.5 KiB (0%)
Language : German
Default : No
Forced : No

Text #8
ID : 10
Format : UTF-8
Codec ID : S_TEXT/UTF8
Codec ID/Info : UTF-8 Plain Text
Duration : 1 h 50 min
Bit rate : 93 b/s
Frame rate : 0.232 FPS
Count of elements : 1535
Stream size : 75.5 KiB (0%)
Language : Greek
Default : No
Forced : No

Text #9
ID : 11
Format : UTF-8
Codec ID : S_TEXT/UTF8
Codec ID/Info : UTF-8 Plain Text
Duration : 1 h 50 min
Bit rate : 53 b/s
Frame rate : 0.238 FPS
Count of elements : 1576
Stream size : 43.3 KiB (0%)
Language : Spanish
Default : No
Forced : No

Text #10
ID : 12
Format : UTF-8
Codec ID : S_TEXT/UTF8
Codec ID/Info : UTF-8 Plain Text
Duration : 1 h 50 min
Bit rate : 51 b/s
Frame rate : 0.240 FPS
Count of elements : 1589
Stream size : 42.0 KiB (0%)
Title : European
Language : Spanish
Default : No
Forced : No

Text #11
ID : 13
Format : UTF-8
Codec ID : S_TEXT/UTF8
Codec ID/Info : UTF-8 Plain Text
Duration : 1 h 50 min
Bit rate : 47 b/s
Frame rate : 0.204 FPS
Count of elements : 1350
Stream size : 38.2 KiB (0%)
Language : Finnish
Default : No
Forced : No

Text #12
ID : 14
Format : UTF-8
Codec ID : S_TEXT/UTF8
Codec ID/Info : UTF-8 Plain Text
Duration : 1 h 50 min
Bit rate : 54 b/s
Frame rate : 0.218 FPS
Count of elements : 1446
Stream size : 44.3 KiB (0%)
Language : French
Default : No
Forced : No

Text #13
ID : 15
Format : UTF-8
Codec ID : S_TEXT/UTF8
Codec ID/Info : UTF-8 Plain Text
Duration : 1 h 50 min
Bit rate : 92 b/s
Frame rate : 0.231 FPS
Count of elements : 1530
Stream size : 74.9 KiB (0%)
Language : Hebrew
Default : No
Forced : No

Text #14
ID : 16
Format : UTF-8
Codec ID : S_TEXT/UTF8
Codec ID/Info : UTF-8 Plain Text
Duration : 1 h 50 min
Bit rate : 50 b/s
Frame rate : 0.236 FPS
Count of elements : 1564
Stream size : 40.4 KiB (0%)
Language : Italian
Default : No
Forced : No

Text #15
ID : 17
Format : UTF-8
Codec ID : S_TEXT/UTF8
Codec ID/Info : UTF-8 Plain Text
Duration : 1 h 50 min
Bit rate : 47 b/s
Frame rate : 0.228 FPS
Count of elements : 1508
Stream size : 38.3 KiB (0%)
Language : Japanese
Default : No
Forced : No

Text #16
ID : 18
Format : UTF-8
Codec ID : S_TEXT/UTF8
Codec ID/Info : UTF-8 Plain Text
Duration : 1 h 50 min
Bit rate : 57 b/s
Frame rate : 0.241 FPS
Count of elements : 1597
Stream size : 46.9 KiB (0%)
Language : Korean
Default : No
Forced : No

Text #17
ID : 19
Format : UTF-8
Codec ID : S_TEXT/UTF8
Codec ID/Info : UTF-8 Plain Text
Duration : 1 h 50 min
Bit rate : 50 b/s
Frame rate : 0.213 FPS
Count of elements : 1412
Stream size : 41.0 KiB (0%)
Language : Norwegian Bokmal
Default : No
Forced : No

Text #18
ID : 20
Format : UTF-8
Codec ID : S_TEXT/UTF8
Codec ID/Info : UTF-8 Plain Text
Duration : 1 h 50 min
Bit rate : 48 b/s
Frame rate : 0.196 FPS
Count of elements : 1296
Stream size : 39.0 KiB (0%)
Language : Dutch
Default : No
Forced : No

Text #19
ID : 21
Format : UTF-8
Codec ID : S_TEXT/UTF8
Codec ID/Info : UTF-8 Plain Text
Duration : 1 h 50 min
Bit rate : 47 b/s
Frame rate : 0.232 FPS
Count of elements : 1539
Stream size : 38.3 KiB (0%)
Language : Polish
Default : No
Forced : No

Text #20
ID : 22
Format : UTF-8
Codec ID : S_TEXT/UTF8
Codec ID/Info : UTF-8 Plain Text
Duration : 1 h 50 min
Bit rate : 54 b/s
Frame rate : 0.227 FPS
Count of elements : 1503
Stream size : 44.2 KiB (0%)
Language : Portuguese
Default : No
Forced : No

Text #21
ID : 23
Format : UTF-8
Codec ID : S_TEXT/UTF8
Codec ID/Info : UTF-8 Plain Text
Duration : 1 h 50 min
Bit rate : 47 b/s
Frame rate : 0.238 FPS
Count of elements : 1576
Stream size : 38.1 KiB (0%)
Title : Brazilian
Language : Portuguese
Default : No
Forced : No

Text #22
ID : 24
Format : UTF-8
Codec ID : S_TEXT/UTF8
Codec ID/Info : UTF-8 Plain Text
Duration : 1 h 50 min
Bit rate : 54 b/s
Frame rate : 0.233 FPS
Count of elements : 1544
Stream size : 43.8 KiB (0%)
Language : Romanian
Default : No
Forced : No

Text #23
ID : 25
Format : UTF-8
Codec ID : S_TEXT/UTF8
Codec ID/Info : UTF-8 Plain Text
Duration : 1 h 50 min
Bit rate : 49 b/s
Frame rate : 0.224 FPS
Count of elements : 1484
Stream size : 40.3 KiB (0%)
Language : Swedish
Default : No
Forced : No

Text #24
ID : 26
Format : UTF-8
Codec ID : S_TEXT/UTF8
Codec ID/Info : UTF-8 Plain Text
Duration : 1 h 50 min
Bit rate : 136 b/s
Frame rate : 0.242 FPS
Count of elements : 1603
Stream size : 110 KiB (0%)
Language : Thai
Default : No
Forced : No

Text #25
ID : 27
Format : UTF-8
Codec ID : S_TEXT/UTF8
Codec ID/Info : UTF-8 Plain Text
Duration : 1 h 50 min
Bit rate : 54 b/s
Frame rate : 0.238 FPS
Count of elements : 1580
Stream size : 44.2 KiB (0%)
Language : Turkish
Default : No
Forced : No

Text #26
ID : 28
Format : UTF-8
Codec ID : S_TEXT/UTF8
Codec ID/Info : UTF-8 Plain Text
Duration : 1 h 50 min
Bit rate : 52 b/s
Frame rate : 0.240 FPS
Count of elements : 1591
Stream size : 42.5 KiB (0%)
Title : 中文(简体)
Language : 中文
Default : No
Forced : No

Text #27
ID : 29
Format : UTF-8
Codec ID : S_TEXT/UTF8
Codec ID/Info : UTF-8 Plain Text
Duration : 1 h 50 min
Bit rate : 49 b/s
Frame rate : 0.240 FPS
Count of elements : 1591
Stream size : 39.6 KiB (0%)
Title : 中文(繁体)
Language : 中文
Default : No
Forced : No

资源速度为零或资源敏感被和谐时,推荐使用qBittorrent等下载软件,有条件的推荐115更好的下载软件!

下载地址:

游客,如果您要查看本帖隐藏内容请回复

游客,如果您要查看本帖隐藏内容请回复


以下为以往下载链接:
游客,如果您要查看本帖隐藏内容请回复


此版本为英文版本
游客,如果您要查看本帖隐藏内容请回复





上一篇:22英里 [简繁中字] / Mile 22 (2018) 4K高清版本下载
下一篇:他是我的全部 [简繁中字] / Hes All That (2021) 4K高清版本下载
回复

使用道具 举报

3

主题

1341

帖子

4049

积分

4K家园VIP

Rank: 9Rank: 9Rank: 9

积分
4049
发表于 2022-7-15 16:19:42 | 显示全部楼层
广告位,,坐下看看
回复 支持 反对

使用道具 举报

1

主题

12

帖子

65

积分

新手上路

Rank: 1

积分
65
发表于 2022-7-15 20:21:29 | 显示全部楼层
谢谢楼主分享
回复 支持 反对

使用道具 举报

1

主题

1326

帖子

3998

积分

4K家园VIP

Rank: 9Rank: 9Rank: 9

积分
3998
发表于 2022-7-25 17:52:19 | 显示全部楼层
我只是路过,不发表意见
回复 支持 反对

使用道具 举报

2

主题

1406

帖子

4240

积分

4K家园VIP

Rank: 9Rank: 9Rank: 9

积分
4240
发表于 2022-7-25 18:23:38 | 显示全部楼层
前排支持下
回复 支持 反对

使用道具 举报

0

主题

1346

帖子

4040

积分

4K家园VIP

Rank: 9Rank: 9Rank: 9

积分
4040
发表于 6 天前 | 显示全部楼层
还有没有别的资源,多分享些
回复 支持 反对

使用道具 举报

49

主题

1480

帖子

4242

积分

4K家园VIP

Rank: 9Rank: 9Rank: 9

积分
4242
发表于 5 天前 | 显示全部楼层
这么强,支持楼主,佩服
回复 支持 反对

使用道具 举报

您需要登录后才可以回帖 登录 | 立即注册

本版积分规则

精彩图文
Archiver|手机版|TAG|Sitemap|新帖|专题|联系我们:邮箱: 4kjia.com@gmail.com   

4k家园   ©2019