[4K电影] 僵尸高校3 [简繁粤中字] / Zombies 3 (2022) 4K高清版本下载

[复制链接]

2163

主题

2306

帖子

1万

积分

超级版主

Rank: 8Rank: 8

积分
16861
 楼主| 发表于 2022-7-15 17:08:04 | 显示全部楼层 |阅读模式
本帖最后由 最爱4K哟 于 2022-7-16 09:17 编辑

QQ图片20220715163802_副本.png

◎标  题 僵尸高校3
◎译  名 僵尸高校生3(港) / Zombies 3
◎片  名 Z-O-M-B-I-E-S 3
◎年  代 2022
◎产  地 美国
◎类  别 爱情 / 歌舞 / 家庭
◎语  言 英语
◎上映日期 2022-07-15(美国网络)
◎IMDb链接 https://www.imdb.com/title/tt14301252/
◎豆瓣链接 https://movie.douban.com/subject/35910429/
◎导  演 保罗·霍恩 Paul Hoen
◎编  剧 戴维·莱特 David Light / 约瑟夫·拉索 Joseph Raso
◎演  员 梅格·唐纳利 Meg Donnelly
       鲁保罗 RuPaul
       麦洛·曼海姆 Milo Manheim
       钱德勒·金尼 Chandler Kinney
       马特· 科耐特 Matt Cornett
       凯利·拉塞尔 Kylee Russell
       特雷弗·托德曼 Trevor Tordjman
       艾米利亚·麦卡锡 Emilia McCarthy
       阿芮尔·马丁 Ariel Martin
       托尼·纳波 Tony Nappo
       布雷蒂·瓦德 Marie Ward
       金斯顿·福斯特 Kingston Foster
       拉莫娜·米拉诺 Ramona Milano
       詹姆斯·戈弗雷 James Godfrey
       奈奥米·斯尼克斯 Naomi Snieckus
       保罗·霍普金斯 Paul Hopkins
       卡拉·杰弗瑞 Carla Jeffery
       袁罗素 Russell Yuen
       杰丝敏·芮妮·托马斯 Jasmine Renée Thomas
       胡因梦 Terry Hu
       梅甘·沃德 Megan Ward

◎简  介

  泽德期待着获得体育奖学金,而艾迪生正在为西布鲁克的国际助威比赛做准备。然后,突然,外星生物出现在西布鲁克周围,这不仅仅是友好的竞争。

Video
ID : 1
Format : HEVC
Format/Info : High Efficiency Video Coding
Format profile : Main 10@L5@High
HDR format : SMPTE ST 2086, HDR10 compatible
Codec ID : V_MPEGH/ISO/HEVC
Duration : 1 h 28 min
Bit rate : 16.7 Mb/s
Width : 3 840 pixels
Height : 2 160 pixels
Display aspect ratio : 16:9
Frame rate mode : Constant
Frame rate : 23.976 (24000/1001) FPS
Color space : YUV
Chroma subsampling : 4:2:0
Bit depth : 10 bits
Bits/(Pixel*Frame) : 0.084
Stream size : 10.3 GiB (96%)
Language : English
Default : Yes
Forced : No
Color range : Limited
Color primaries : BT.2020
Transfer characteristics : PQ
Matrix coefficients : BT.2020 non-constant
Mastering display color primaries : Display P3
Mastering display luminance : min: 0.0001 cd/m2, max: 1000 cd/m2
Maximum Content Light Level : 1433 cd/m2
Maximum Frame-Average Light Level : 1019 cd/m2

Audio
ID : 2
Format : E-AC-3 JOC
Format/Info : Enhanced AC-3 with Joint Object Coding
Commercial name : Dolby Digital Plus with Dolby Atmos
Codec ID : A_EAC3
Duration : 1 h 28 min
Bit rate mode : Constant
Bit rate : 768 kb/s
Channel(s) : 6 channels
Channel layout : L R C LFE Ls Rs
Sampling rate : 48.0 kHz
Frame rate : 31.250 FPS (1536 SPF)
Compression mode : Lossy
Stream size : 485 MiB (4%)
Language : English
Service kind : Complete Main
Default : Yes
Forced : No
Complexity index : 16
Number of dynamic objects : 15
Bed channel count : 1 channel
Bed channel configuration : LFE

Text #1
ID : 3
Format : UTF-8
Codec ID : S_TEXT/UTF8
Codec ID/Info : UTF-8 Plain Text
Duration : 1 h 28 min
Bit rate : 91 b/s
Frame rate : 0.315 FPS
Count of elements : 1671
Stream size : 58.9 KiB (0%)
Title : SDH
Language : English
Default : No
Forced : No

Text #2
ID : 4
Format : UTF-8
Codec ID : S_TEXT/UTF8
Codec ID/Info : UTF-8 Plain Text
Duration : 1 h 28 min
Bit rate : 82 b/s
Frame rate : 0.271 FPS
Count of elements : 1438
Stream size : 53.2 KiB (0%)
Language : English
Default : No
Forced : No

Text #3
ID : 5
Format : UTF-8
Codec ID : S_TEXT/UTF8
Codec ID/Info : UTF-8 Plain Text
Duration : 1 h 28 min
Bit rate : 72 b/s
Frame rate : 0.250 FPS
Count of elements : 1325
Stream size : 47.1 KiB (0%)
Language : Czech
Default : No
Forced : No

Text #4
ID : 6
Format : UTF-8
Codec ID : S_TEXT/UTF8
Codec ID/Info : UTF-8 Plain Text
Duration : 1 h 28 min
Bit rate : 77 b/s
Frame rate : 0.263 FPS
Count of elements : 1393
Stream size : 50.0 KiB (0%)
Language : Danish
Default : No
Forced : No

Text #5
ID : 7
Format : UTF-8
Codec ID : S_TEXT/UTF8
Codec ID/Info : UTF-8 Plain Text
Duration : 1 h 28 min
Bit rate : 78 b/s
Frame rate : 0.252 FPS
Count of elements : 1334
Stream size : 50.5 KiB (0%)
Language : German
Default : No
Forced : No

Text #6
ID : 8
Format : UTF-8
Codec ID : S_TEXT/UTF8
Codec ID/Info : UTF-8 Plain Text
Duration : 1 h 28 min
Bit rate : 128 b/s
Frame rate : 0.255 FPS
Count of elements : 1349
Stream size : 82.9 KiB (0%)
Language : Greek
Default : No
Forced : No

Text #7
ID : 9
Format : UTF-8
Codec ID : S_TEXT/UTF8
Codec ID/Info : UTF-8 Plain Text
Duration : 1 h 28 min
Bit rate : 74 b/s
Frame rate : 0.256 FPS
Count of elements : 1354
Stream size : 47.9 KiB (0%)
Language : Spanish
Default : No
Forced : No

Text #8
ID : 10
Format : UTF-8
Codec ID : S_TEXT/UTF8
Codec ID/Info : UTF-8 Plain Text
Duration : 1 h 28 min
Bit rate : 72 b/s
Frame rate : 0.243 FPS
Count of elements : 1288
Stream size : 46.8 KiB (0%)
Title : Latin American
Language : Spanish
Default : No
Forced : No

Text #9
ID : 11
Format : UTF-8
Codec ID : S_TEXT/UTF8
Codec ID/Info : UTF-8 Plain Text
Duration : 1 h 28 min
Bit rate : 74 b/s
Frame rate : 0.258 FPS
Count of elements : 1367
Stream size : 48.4 KiB (0%)
Language : Finnish
Default : No
Forced : No

Text #10
ID : 12
Format : UTF-8
Codec ID : S_TEXT/UTF8
Codec ID/Info : UTF-8 Plain Text
Duration : 1 h 28 min
Bit rate : 80 b/s
Frame rate : 0.261 FPS
Count of elements : 1382
Stream size : 52.1 KiB (0%)
Language : French
Default : No
Forced : No

Text #11
ID : 13
Format : UTF-8
Codec ID : S_TEXT/UTF8
Codec ID/Info : UTF-8 Plain Text
Duration : 1 h 28 min
Bit rate : 74 b/s
Frame rate : 0.255 FPS
Count of elements : 1350
Stream size : 48.1 KiB (0%)
Language : Hungarian
Default : No
Forced : No

Text #12
ID : 14
Format : UTF-8
Codec ID : S_TEXT/UTF8
Codec ID/Info : UTF-8 Plain Text
Duration : 1 h 28 min
Bit rate : 75 b/s
Frame rate : 0.262 FPS
Count of elements : 1387
Stream size : 48.9 KiB (0%)
Language : Italian
Default : No
Forced : No

Text #13
ID : 15
Format : UTF-8
Codec ID : S_TEXT/UTF8
Codec ID/Info : UTF-8 Plain Text
Duration : 1 h 28 min
Bit rate : 61 b/s
Frame rate : 0.243 FPS
Count of elements : 1290
Stream size : 39.8 KiB (0%)
Language : Japanese
Default : No
Forced : No

Text #14
ID : 16
Format : UTF-8
Codec ID : S_TEXT/UTF8
Codec ID/Info : UTF-8 Plain Text
Duration : 1 h 28 min
Bit rate : 80 b/s
Frame rate : 0.259 FPS
Count of elements : 1371
Stream size : 52.1 KiB (0%)
Language : Korean
Default : No
Forced : No

Text #15
ID : 17
Format : UTF-8
Codec ID : S_TEXT/UTF8
Codec ID/Info : UTF-8 Plain Text
Duration : 1 h 28 min
Bit rate : 72 b/s
Frame rate : 0.224 FPS
Count of elements : 1189
Stream size : 47.0 KiB (0%)
Language : Dutch
Default : No
Forced : No

Text #16
ID : 18
Format : UTF-8
Codec ID : S_TEXT/UTF8
Codec ID/Info : UTF-8 Plain Text
Duration : 1 h 28 min
Bit rate : 71 b/s
Frame rate : 0.250 FPS
Count of elements : 1326
Stream size : 46.5 KiB (0%)
Language : Norwegian
Default : No
Forced : No

Text #17
ID : 19
Format : UTF-8
Codec ID : S_TEXT/UTF8
Codec ID/Info : UTF-8 Plain Text
Duration : 1 h 28 min
Bit rate : 70 b/s
Frame rate : 0.257 FPS
Count of elements : 1362
Stream size : 45.5 KiB (0%)
Language : Polish
Default : No
Forced : No

Text #18
ID : 20
Format : UTF-8
Codec ID : S_TEXT/UTF8
Codec ID/Info : UTF-8 Plain Text
Duration : 1 h 28 min
Bit rate : 73 b/s
Frame rate : 0.261 FPS
Count of elements : 1380
Stream size : 47.8 KiB (0%)
Language : Portuguese
Default : No
Forced : No

Text #19
ID : 21
Format : UTF-8
Codec ID : S_TEXT/UTF8
Codec ID/Info : UTF-8 Plain Text
Duration : 1 h 28 min
Bit rate : 73 b/s
Frame rate : 0.253 FPS
Count of elements : 1338
Stream size : 47.7 KiB (0%)
Title : Brazilian
Language : Portuguese
Default : No
Forced : No

Text #20
ID : 22
Format : UTF-8
Codec ID : S_TEXT/UTF8
Codec ID/Info : UTF-8 Plain Text
Duration : 1 h 28 min
Bit rate : 71 b/s
Frame rate : 0.223 FPS
Count of elements : 1182
Stream size : 46.0 KiB (0%)
Language : Romanian
Default : No
Forced : No

Text #21
ID : 23
Format : UTF-8
Codec ID : S_TEXT/UTF8
Codec ID/Info : UTF-8 Plain Text
Duration : 1 h 28 min
Bit rate : 75 b/s
Frame rate : 0.262 FPS
Count of elements : 1389
Stream size : 48.9 KiB (0%)
Language : Slovak
Default : No
Forced : No

Text #22
ID : 24
Format : UTF-8
Codec ID : S_TEXT/UTF8
Codec ID/Info : UTF-8 Plain Text
Duration : 1 h 28 min
Bit rate : 74 b/s
Frame rate : 0.257 FPS
Count of elements : 1361
Stream size : 48.3 KiB (0%)
Language : Swedish
Default : No
Forced : No

Text #23
ID : 25
Format : UTF-8
Codec ID : S_TEXT/UTF8
Codec ID/Info : UTF-8 Plain Text
Duration : 1 h 28 min
Bit rate : 80 b/s
Frame rate : 0.263 FPS
Count of elements : 1392
Stream size : 52.3 KiB (0%)
Language : Turkish
Default : No
Forced : No

Text #24
ID : 26
Format : UTF-8
Codec ID : S_TEXT/UTF8
Codec ID/Info : UTF-8 Plain Text
Duration : 1 h 28 min
Bit rate : 65 b/s
Frame rate : 0.263 FPS
Count of elements : 1394
Stream size : 42.3 KiB (0%)
Title : 中文(粤语)
Language : 中文
Default : No
Forced : No

Text #25
ID : 27
Format : UTF-8
Codec ID : S_TEXT/UTF8
Codec ID/Info : UTF-8 Plain Text
Duration : 1 h 28 min
Bit rate : 71 b/s
Frame rate : 0.261 FPS
Count of elements : 1385
Stream size : 46.0 KiB (0%)
Title : 中文(简体)
Language : 中文
Default : No
Forced : No

Text #26
ID : 28
Format : UTF-8
Codec ID : S_TEXT/UTF8
Codec ID/Info : UTF-8 Plain Text
Duration : 1 h 28 min
Bit rate : 73 b/s
Frame rate : 0.265 FPS
Count of elements : 1403
Stream size : 47.3 KiB (0%)
Title : 中文(繁体)
Language : 中文
Default : No
Forced : No

Menu
01:28:18.423 : Credits

资源速度为零或资源敏感被和谐时,推荐使用qBittorrent等下载软件,有条件的推荐115更好的下载软件!

下载地址:

游客,如果您要查看本帖隐藏内容请回复

游客,如果您要查看本帖隐藏内容请回复

游客,如果您要查看本帖隐藏内容请回复

游客,如果您要查看本帖隐藏内容请回复






上一篇:他是我的全部 [简繁中字] / Hes All That (2021) 4K高清版本下载
下一篇:美国大屠杀 / American Carnage (2022) 4K高清版本下载
回复

使用道具 举报

1

主题

1341

帖子

3845

积分

4K家园VIP

Rank: 9Rank: 9Rank: 9

积分
3845
发表于 2022-7-15 17:08:21 | 显示全部楼层
啥玩应呀
回复 支持 反对

使用道具 举报

1

主题

1735

帖子

4815

积分

4K家园VIP

Rank: 9Rank: 9Rank: 9

积分
4815
发表于 2022-7-20 02:02:10 来自手机 | 显示全部楼层
呵呵,低调,低调!
回复 支持 反对

使用道具 举报

2

主题

1165

帖子

3515

积分

4K家园VIP

Rank: 9Rank: 9Rank: 9

积分
3515
发表于 2022-7-22 22:00:36 | 显示全部楼层
一直在看
回复 支持 反对

使用道具 举报

0

主题

17

帖子

30

积分

新手上路

Rank: 1

积分
30
发表于 2022-7-24 02:26:57 来自手机 | 显示全部楼层
66666
回复

使用道具 举报

1

主题

1636

帖子

4482

积分

4K家园VIP

Rank: 9Rank: 9Rank: 9

积分
4482
发表于 2022-8-1 06:40:27 | 显示全部楼层
支持楼主,用户楼主,楼主英明呀!!!
回复 支持 反对

使用道具 举报

1

主题

1274

帖子

3840

积分

4K家园VIP

Rank: 9Rank: 9Rank: 9

积分
3840
发表于 2022-8-3 23:33:51 | 显示全部楼层
支持,楼下的跟上哈~
回复 支持 反对

使用道具 举报

您需要登录后才可以回帖 登录 | 立即注册

本版积分规则

精彩图文
Archiver|手机版|TAG|Sitemap|新帖|专题|联系我们:邮箱: 4kjia.com@gmail.com   

4k家园   ©2019