[4K电影] 美国大屠杀 / American Carnage (2022) 4K高清版本下载

[复制链接]

2163

主题

2306

帖子

1万

积分

超级版主

Rank: 8Rank: 8

积分
16861
 楼主| 发表于 2022-7-15 17:07:23 | 显示全部楼层 |阅读模式
QQ图片20220715163650_副本.png

◎标  题 美国大屠杀
◎片  名 American Carnage
◎年  代 2022
◎产  地 美国
◎类  别 喜剧 / 恐怖
◎语  言 英语
◎IMDb评分 0/10 from 0 users
◎IMDb链接 https://www.imdb.com/title/tt20672490/
◎豆瓣评分 0/10 from 0 users
◎豆瓣链接 https://movie.douban.com/subject/35921701/
◎导  演 迭戈•哈尔维斯 Diego Hallivis
◎编  剧 迭戈•哈尔维斯 Diego Hallivis / 胡里奥·哈利维斯 Julio Hallivis
◎演  员 珍娜·奥尔特加 Jenna Ortega
                  小豪尔赫·兰登伯格 Jorge Lendeborg Jr.
                  阿伦·马尔多纳多 Allen Maldonado
                  埃里克·迪恩 Eric Dane
                  布莱特·卡伦 Brett Cullen
                  豪尔赫·迪亚斯 Jorge Diaz
                  贝拉·奥尔蒂斯 Bella Ortiz
                  尤玛丽·莫拉莱斯 Yumarie Morales
                  凯瑟琳·麦卡弗蒂 Catherine McCafferty
                  安德鲁·坎普弗 Andrew Kaempfer
                  帕洛玛·布洛伊德 Paloma Bloyd
                  比务·比林格斯勒拉 Beau Billingslea     
                  迈克尔·巴蒂斯塔 Michael Batista
                  蒂芙尼·布朗 Tiffany Brown
                  Gigi Burgdorf Gigi Burgdorf


◎简  介


  在州长发布行政命令逮捕无证移民的子女后,新被拘留的年轻人有机会通过自愿为老年人提供照顾来撤销指控。一旦进入老年护理中心,志愿者们就发现州长和该中心的主管编造了一个可怕的堕落阴谋。。。

Video
ID : 1
Format : HEVC
Format/Info : High Efficiency Video Coding
Format profile : Main 10@L5@High
Codec ID : V_MPEGH/ISO/HEVC
Duration : 1 h 41 min
Bit rate : 12.0 Mb/s
Width : 3 824 pixels
Height : 1 584 pixels
Display aspect ratio : 2.40:1
Frame rate mode : Constant
Frame rate : 23.976 FPS
Color space : YUV
Chroma subsampling : 4:2:0
Bit depth : 10 bits
Bits/(Pixel*Frame) : 0.082
Stream size : 8.45 GiB (97%)
Language : English
Default : Yes
Forced : No
Color range : Limited
Color primaries : BT.709
Transfer characteristics : BT.709
Matrix coefficients : BT.709

Audio
ID : 2
Format : AC-3
Format/Info : Audio Coding 3
Commercial name : Dolby Digital
Codec ID : A_AC3
Duration : 1 h 41 min
Bit rate mode : Constant
Bit rate : 384 kb/s
Channel(s) : 6 channels
Channel layout : L R C LFE Ls Rs
Sampling rate : 48.0 kHz
Frame rate : 31.250 FPS (1536 SPF)
Compression mode : Lossy
Stream size : 278 MiB (3%)
Language : English
Service kind : Complete Main
Default : Yes
Forced : No

Text
ID : 3
Format : UTF-8
Codec ID : S_TEXT/UTF8
Codec ID/Info : UTF-8 Plain Text
Duration : 1 h 35 min
Bit rate : 60 b/s
Frame rate : 0.262 FPS
Count of elements : 1506
Stream size : 42.4 KiB (0%)
Language : English
Default : Yes
Forced : No

资源速度为零或资源敏感被和谐时,推荐使用qBittorrent等下载软件,有条件的推荐115更好的下载软件!

下载地址:
游客,如果您要查看本帖隐藏内容请回复





上一篇:僵尸高校3 [简繁粤中字] / Zombies 3 (2022) 4K高清版本下载
下一篇:留在身旁 [简繁中字] / Don't Make Me Go (2022) 4K高清版本下载
回复

使用道具 举报

46

主题

1453

帖子

4187

积分

4K家园VIP

Rank: 9Rank: 9Rank: 9

积分
4187
发表于 2022-7-15 17:07:39 | 显示全部楼层
不错 支持一个了
回复 支持 反对

使用道具 举报

0

主题

5

帖子

25

积分

新手上路

Rank: 1

积分
25
发表于 2022-7-15 21:27:33 | 显示全部楼层
支持支持
回复

使用道具 举报

0

主题

2

帖子

13

积分

新手上路

Rank: 1

积分
13
发表于 2022-7-16 15:09:05 | 显示全部楼层
好好学习天天向上
回复 支持 反对

使用道具 举报

13

主题

1221

帖子

3635

积分

4K家园VIP

Rank: 9Rank: 9Rank: 9

积分
3635
发表于 2022-7-16 21:30:56 | 显示全部楼层
感谢推荐,确实不错
回复 支持 反对

使用道具 举报

0

主题

1

帖子

434

积分

4K家园VIP

Rank: 9Rank: 9Rank: 9

积分
434
发表于 2022-7-17 11:51:32 | 显示全部楼层
没字幕啊
回复

使用道具 举报

60

主题

1500

帖子

4356

积分

4K家园VIP

Rank: 9Rank: 9Rank: 9

积分
4356
发表于 2022-7-19 17:12:03 | 显示全部楼层
4K家园不错,希望这种资源越多越好
回复 支持 反对

使用道具 举报

49

主题

1548

帖子

4476

积分

4K家园VIP

Rank: 9Rank: 9Rank: 9

积分
4476
发表于 2022-7-21 16:17:21 来自手机 | 显示全部楼层
前排支持下
回复 支持 反对

使用道具 举报

0

主题

3

帖子

12

积分

新手上路

Rank: 1

积分
12
发表于 2022-7-21 16:36:48 来自手机 | 显示全部楼层
直播
回复

使用道具 举报

0

主题

1

帖子

6

积分

新手上路

Rank: 1

积分
6
发表于 2022-7-25 00:14:57 | 显示全部楼层
请让我下这个电影 真好看啊请让我下这个电影 真好看啊
回复 支持 反对

使用道具 举报

您需要登录后才可以回帖 登录 | 立即注册

本版积分规则

精彩图文
Archiver|手机版|TAG|Sitemap|新帖|专题|联系我们:邮箱: 4kjia.com@gmail.com   

4k家园   ©2019