[4K电影] 斯宾塞的机密任务 [简繁中字] (2020) 4K高清版本下载

[复制链接]

2118

主题

2259

帖子

1万

积分

超级版主

Rank: 8Rank: 8

积分
16577
 楼主| 发表于 2022-7-16 21:08:11 | 显示全部楼层 |阅读模式
本帖最后由 最爱4K哟 于 2022-7-16 21:16 编辑

QQ图片20220716211549_副本.png

◎译  名 斯宾塞的机密任务/Wonderland/仙境/史宾赛的机密任务(台)/奇特之地/斯潘瑟机密/隐侠:地下正义(港)
◎片  名 Spenser Confidential
◎年  代 2020
◎产  地 美国
◎类  别 剧情 / 悬疑 / 惊悚 / 犯罪
◎语  言 英语
◎上映日期 2020-03-06(美国)
◎IMDb评分 6.2/10 from 69378 users
◎IMDb链接 https://www.imdb.com/title/tt8629748/
◎豆瓣评分 5.8/10 from 4988 users
◎豆瓣链接 https://movie.douban.com/subject/30258631/
◎片  长 110分钟
◎导  演 彼得·博格 Peter Berg
◎编  剧 布莱恩·海尔格兰德 Brian Helgeland / 肖恩·欧奇夫 Sean O'Keefe / 罗伯特·B·帕克 Robert B. Parker / 艾斯·阿特金斯 Ace Atkins
◎主  演 马克·沃尔伯格 Mark Wahlberg
       艾伦·阿金 Alan Arkin
       考林·加普 Colleen Camp
       博基姆·伍德拜因 Bokeem Woodbine
       温斯顿·杜克 Winston Duke
       埃莱扎·施莱辛格 Iliza Shlesinger
       迈克尔·加斯顿 Michael Gaston
       马克·马龙 Marc Maron
       凯茜·温图拉 Cassie Ventura
       詹姆斯·杜蒙特 James DuMont
       杰米·加扎里安 Jamie Ghazarian
       汉斯·马雷罗 Hans Marrero
       亚历山德拉·维诺 Alexandra Vino
       托马斯·马里亚诺 Thomas Mariano
       莱克西·罗斯 Lexie Roth
       多梅尼克·阿尔迪诺 Domenic Arduino
       阿德里安·M·蒙波因特 Adrian M. Mompoint
       兰迪·冈萨雷斯 Randy Gonzalez
       博·克利里 Bo Cleary
       罗丝玛丽·霍华德 Rosemary Howard
       比利·康查 Billy Concha
       吉莉安·泰勒 Jillian Taylor
       妮可·杰森 Nicole Jesson
       阿尔弗雷德·布里埃 Alfred Briere
       玛塞拉·贾拉米洛 Marcela Jaramillo


◎简  介


  这是沃尔伯格和导演彼得·博格自《孤独的幸存者》《恐袭波士顿》《深海浩劫》《22英里》后第五度,合作基于罗伯特·B·派克所著同名小说,派克死后由Ace Atkins接手创作,也是以男主角Spenser为中心的八本系列悬疑小说中的一本。Netflix已经和派克遗产方面达成协议,基于Spenser这一角色打造一系列电影。

  本片将有别于小说,小说讲述Spenser从一个满嘴俏皮话的拳击手变为波士顿的一名私家侦探,电影从Spenser出狱开始讲起,他被剥夺了私人侦探执照,当他揭露了一个耸人听闻的谋杀案和背后阴谋的真相时,他又被拉回了波士顿的黑暗犯罪世界中。尼尔·莫瑞兹(《速度与激情》系列 《越狱》)制片, Sean O’Keefe编写剧本。

Video
ID : 1
Format : HEVC
Format/Info : High Efficiency Video Coding
Format profile : Main 10@L5@Main
HDR format : Dolby Vision, Version 1.0, dvhe.05.06, BL+RPU
Codec ID : dvhe
Codec ID/Info : High Efficiency Video Coding with Dolby Vision
Duration : 1 h 51 min
Bit rate : 15.5 Mb/s
Width : 3 840 pixels
Height : 2 160 pixels
Display aspect ratio : 16:9
Frame rate mode : Constant
Frame rate : 24.000 FPS
Color space : YUV
Chroma subsampling : 4:2:0
Bit depth : 10 bits
Bits/(Pixel*Frame) : 0.078
Stream size : 12.0 GiB (95%)
Default : Yes
Alternate group : 1
Encoded date : UTC 2022-07-15 15:35:49
Tagged date : UTC 2022-07-15 15:37:41
Color range : Full
Codec configuration box : hvcC+dvcC

Audio
ID : 2
Format : E-AC-3 JOC
Format/Info : Enhanced AC-3 with Joint Object Coding
Commercial name : Dolby Digital Plus with Dolby Atmos
Codec ID : ec-3
Duration : 1 h 51 min
Bit rate mode : Constant
Bit rate : 768 kb/s
Maximum bit rate : 811 kb/s
Channel(s) : 6 channels
Channel layout : L R C LFE Ls Rs
Sampling rate : 48.0 kHz
Frame rate : 31.250 FPS (1536 SPF)
Compression mode : Lossy
Stream size : 611 MiB (5%)
Title : English
Language : English
Service kind : Complete Main
Default : Yes
Alternate group : 1
Tagged date : UTC 2022-07-15 15:37:41
Complexity index : Not present / 16
Number of dynamic objects : 15
Bed channel count : 1 channel
Bed channel configuration : LFE

Text #1
ID : 3
Format : Timed Text
Codec ID : tx3g
Duration : 1 h 45 min
Bit rate mode : Variable
Bit rate : 93 b/s
Frame rate : 0.601 FPS
Stream size : 71.5 KiB (0%)
Title : English
Language : English
Forced : No
Encoded date : UTC 2022-07-15 15:37:34
Tagged date : UTC 2022-07-15 15:37:41

Text #2
ID : 4
Format : Timed Text
Codec ID : tx3g
Duration : 1 h 50 min
Bit rate mode : Variable
Bit rate : 119 b/s
Frame rate : 0.478 FPS
Stream size : 95.6 KiB (0%)
Title : Arabic
Language : Arabic
Forced : No
Encoded date : UTC 2022-07-15 15:37:34
Tagged date : UTC 2022-07-15 15:37:41

Text #3
ID : 5
Format : Timed Text
Codec ID : tx3g
Duration : 1 h 50 min
Bit rate mode : Variable
Bit rate : 73 b/s
Frame rate : 0.494 FPS
Stream size : 58.6 KiB (0%)
Title : 中文(简体)
Language : 中文
Forced : No
Encoded date : UTC 2022-07-15 15:37:35
Tagged date : UTC 2022-07-15 15:37:41

Text #4
ID : 6
Format : Timed Text
Codec ID : tx3g
Duration : 1 h 50 min
Bit rate mode : Variable
Bit rate : 73 b/s
Frame rate : 0.485 FPS
Stream size : 59.0 KiB (0%)
Title : 中文(繁体)
Language : 中文
Forced : No
Encoded date : UTC 2022-07-15 15:37:35
Tagged date : UTC 2022-07-15 15:37:41

Text #5
ID : 7
Format : Timed Text
Codec ID : tx3g
Duration : 1 h 44 min
Bit rate mode : Variable
Bit rate : 65 b/s
Frame rate : 0.386 FPS
Stream size : 49.8 KiB (0%)
Title : Czech
Language : Czech
Forced : No
Encoded date : UTC 2022-07-15 15:37:35
Tagged date : UTC 2022-07-15 15:37:41

Text #6
ID : 8
Format : Timed Text
Codec ID : tx3g
Duration : 1 h 50 min
Bit rate mode : Variable
Bit rate : 59 b/s
Frame rate : 0.454 FPS
Stream size : 47.4 KiB (0%)
Title : Danish
Language : Danish
Forced : No
Encoded date : UTC 2022-07-15 15:37:35
Tagged date : UTC 2022-07-15 15:37:41

Text #7
ID : 9
Format : Timed Text
Codec ID : tx3g
Duration : 1 h 50 min
Bit rate mode : Variable
Bit rate : 61 b/s
Frame rate : 0.415 FPS
Stream size : 49.4 KiB (0%)
Title : Dutch
Language : Dutch
Forced : No
Encoded date : UTC 2022-07-15 15:37:35
Tagged date : UTC 2022-07-15 15:37:41

Text #8
ID : 10
Format : Timed Text
Codec ID : tx3g
Duration : 1 h 50 min
Bit rate mode : Variable
Bit rate : 59 b/s
Frame rate : 0.427 FPS
Stream size : 47.7 KiB (0%)
Title : Finnish
Language : Finnish
Forced : No
Encoded date : UTC 2022-07-15 15:37:35
Tagged date : UTC 2022-07-15 15:37:41

Text #9
ID : 11
Format : Timed Text
Codec ID : tx3g
Duration : 1 h 50 min
Bit rate mode : Variable
Bit rate : 66 b/s
Frame rate : 0.474 FPS
Stream size : 53.2 KiB (0%)
Title : French
Language : French
Forced : No
Encoded date : UTC 2022-07-15 15:37:35
Tagged date : UTC 2022-07-15 15:37:41

Text #10
ID : 12
Format : Timed Text
Codec ID : tx3g
Duration : 1 h 45 min
Bit rate mode : Variable
Bit rate : 63 b/s
Frame rate : 0.478 FPS
Stream size : 49.0 KiB (0%)
Title : German
Language : German
Forced : No
Encoded date : UTC 2022-07-15 15:37:35
Tagged date : UTC 2022-07-15 15:37:41

Text #11
ID : 13
Format : Timed Text
Codec ID : tx3g
Duration : 1 h 50 min
Bit rate mode : Variable
Bit rate : 102 b/s
Frame rate : 0.474 FPS
Stream size : 81.9 KiB (0%)
Title : Greek
Language : Greek
Forced : No
Encoded date : UTC 2022-07-15 15:37:36
Tagged date : UTC 2022-07-15 15:37:41

Text #12
ID : 14
Format : Timed Text
Codec ID : tx3g
Duration : 1 h 50 min
Bit rate mode : Variable
Bit rate : 107 b/s
Frame rate : 0.480 FPS
Stream size : 86.0 KiB (0%)
Title : Hebrew
Language : Hebrew
Forced : No
Encoded date : UTC 2022-07-15 15:37:36
Tagged date : UTC 2022-07-15 15:37:41

Text #13
ID : 15
Format : Timed Text
Codec ID : tx3g
Duration : 1 h 50 min
Bit rate mode : Variable
Bit rate : 181 b/s
Frame rate : 0.486 FPS
Stream size : 146 KiB (0%)
Title : Hindi
Language : Hindi
Forced : No
Encoded date : UTC 2022-07-15 15:37:37
Tagged date : UTC 2022-07-15 15:37:41

Text #14
ID : 16
Format : Timed Text
Codec ID : tx3g
Duration : 1 h 50 min
Bit rate mode : Variable
Bit rate : 60 b/s
Frame rate : 0.481 FPS
Stream size : 48.5 KiB (0%)
Title : Hungarian
Language : Hungarian
Forced : No
Encoded date : UTC 2022-07-15 15:37:37
Tagged date : UTC 2022-07-15 15:37:41

Text #15
ID : 17
Format : Timed Text
Codec ID : tx3g
Duration : 1 h 50 min
Bit rate mode : Variable
Bit rate : 66 b/s
Frame rate : 0.484 FPS
Stream size : 53.5 KiB (0%)
Title : Indonesian
Language : Indonesian
Forced : No
Encoded date : UTC 2022-07-15 15:37:37
Tagged date : UTC 2022-07-15 15:37:41

Text #16
ID : 18
Format : Timed Text
Codec ID : tx3g
Duration : 1 h 50 min
Bit rate mode : Variable
Bit rate : 64 b/s
Frame rate : 0.468 FPS
Stream size : 51.3 KiB (0%)
Title : Italian
Language : Italian
Forced : No
Encoded date : UTC 2022-07-15 15:37:37
Tagged date : UTC 2022-07-15 15:37:41

Text #17
ID : 19
Format : Timed Text
Codec ID : tx3g
Duration : 1 h 50 min
Bit rate mode : Variable
Bit rate : 60 b/s
Frame rate : 0.443 FPS
Stream size : 48.1 KiB (0%)
Title : Japanese
Language : Japanese
Forced : No
Encoded date : UTC 2022-07-15 15:37:37
Tagged date : UTC 2022-07-15 15:37:41

Text #18
ID : 20
Format : Timed Text
Codec ID : tx3g
Duration : 1 h 50 min
Bit rate mode : Variable
Bit rate : 83 b/s
Frame rate : 0.484 FPS
Stream size : 66.9 KiB (0%)
Title : Korean
Language : Korean
Forced : No
Encoded date : UTC 2022-07-15 15:37:37
Tagged date : UTC 2022-07-15 15:37:41

Text #19
ID : 21
Format : Timed Text
Codec ID : tx3g
Duration : 1 h 50 min
Bit rate mode : Variable
Bit rate : 60 b/s
Frame rate : 0.435 FPS
Stream size : 48.6 KiB (0%)
Title : Norwegian
Language : Norwegian Bokmal
Forced : No
Encoded date : UTC 2022-07-15 15:37:39
Tagged date : UTC 2022-07-15 15:37:41

Text #20
ID : 22
Format : Timed Text
Codec ID : tx3g
Duration : 1 h 50 min
Bit rate mode : Variable
Bit rate : 56 b/s
Frame rate : 0.448 FPS
Stream size : 45.2 KiB (0%)
Title : Polish
Language : Polish
Forced : No
Encoded date : UTC 2022-07-15 15:37:40
Tagged date : UTC 2022-07-15 15:37:41

Text #21
ID : 23
Format : Timed Text
Codec ID : tx3g
Duration : 1 h 50 min
Bit rate mode : Variable
Bit rate : 63 b/s
Frame rate : 0.480 FPS
Stream size : 50.9 KiB (0%)
Title : Portuguese
Language : Portuguese
Forced : No
Encoded date : UTC 2022-07-15 15:37:40
Tagged date : UTC 2022-07-15 15:37:41

Text #22
ID : 24
Format : Timed Text
Codec ID : tx3g
Duration : 1 h 50 min
Bit rate mode : Variable
Bit rate : 69 b/s
Frame rate : 0.475 FPS
Stream size : 55.4 KiB (0%)
Title : Portuguese
Language : Portuguese
Forced : No
Encoded date : UTC 2022-07-15 15:37:40
Tagged date : UTC 2022-07-15 15:37:41

Text #23
ID : 25
Format : Timed Text
Codec ID : tx3g
Duration : 1 h 50 min
Bit rate mode : Variable
Bit rate : 72 b/s
Frame rate : 0.456 FPS
Stream size : 58.1 KiB (0%)
Title : Romanian
Language : Romanian
Forced : No
Encoded date : UTC 2022-07-15 15:37:40
Tagged date : UTC 2022-07-15 15:37:41

Text #24
ID : 26
Format : Timed Text
Codec ID : tx3g
Duration : 1 h 50 min
Bit rate mode : Variable
Bit rate : 108 b/s
Frame rate : 0.485 FPS
Stream size : 87.0 KiB (0%)
Title : Russian
Language : Russian
Forced : No
Encoded date : UTC 2022-07-15 15:37:40
Tagged date : UTC 2022-07-15 15:37:41

Text #25
ID : 27
Format : Timed Text
Codec ID : tx3g
Duration : 1 h 50 min
Bit rate mode : Variable
Bit rate : 63 b/s
Frame rate : 0.482 FPS
Stream size : 51.0 KiB (0%)
Title : Spanish-EU
Language : Spanish
Forced : No
Encoded date : UTC 2022-07-15 15:37:40
Tagged date : UTC 2022-07-15 15:37:41

Text #26
ID : 28
Format : Timed Text
Codec ID : tx3g
Duration : 1 h 50 min
Bit rate mode : Variable
Bit rate : 60 b/s
Frame rate : 0.478 FPS
Stream size : 48.8 KiB (0%)
Title : Spanish-EU
Language : Spanish
Forced : No
Encoded date : UTC 2022-07-15 15:37:41
Tagged date : UTC 2022-07-15 15:37:41

Text #27
ID : 29
Format : Timed Text
Codec ID : tx3g
Duration : 1 h 50 min
Bit rate mode : Variable
Bit rate : 59 b/s
Frame rate : 0.392 FPS
Stream size : 47.7 KiB (0%)
Title : Swedish
Language : Swedish
Forced : No
Encoded date : UTC 2022-07-15 15:37:41
Tagged date : UTC 2022-07-15 15:37:41

Text #28
ID : 30
Format : Timed Text
Codec ID : tx3g
Duration : 1 h 50 min
Bit rate mode : Variable
Bit rate : 177 b/s
Frame rate : 0.488 FPS
Stream size : 142 KiB (0%)
Title : Thai
Language : Thai
Forced : No
Encoded date : UTC 2022-07-15 15:37:41
Tagged date : UTC 2022-07-15 15:37:41

Text #29
ID : 31
Format : Timed Text
Codec ID : tx3g
Duration : 1 h 50 min
Bit rate mode : Variable
Bit rate : 66 b/s
Frame rate : 0.452 FPS
Stream size : 53.2 KiB (0%)
Title : Turkish
Language : Turkish
Forced : No
Encoded date : UTC 2022-07-15 15:37:41
Tagged date : UTC 2022-07-15 15:37:41

Text #30
ID : 32
Format : Timed Text
Codec ID : tx3g
Duration : 1 h 50 min
Bit rate mode : Variable
Bit rate : 92 b/s
Frame rate : 0.483 FPS
Stream size : 74.2 KiB (0%)
Title : Vietnamese
Language : Vietnamese
Forced : No
Encoded date : UTC 2022-07-15 15:37:41
Tagged date : UTC 2022-07-15 15:37:41

资源速度为零或资源敏感被和谐时,推荐使用qBittorrent等下载软件,有条件的推荐115更好的下载软件!

下载地址:


游客,如果您要查看本帖隐藏内容请回复

游客,如果您要查看本帖隐藏内容请回复


相关其他4K高清版本链接:《斯宾塞的机密任务》4K高清下载/11.85GB




上一篇:假日约会 [简繁中字] / Holidate (2020) 4K高清版本下载
下一篇:甜心女孩 [简繁中字] / Sweet Girl (2021) 4K高清版本下载
回复

使用道具 举报

1

主题

1374

帖子

4140

积分

4K家园VIP

Rank: 9Rank: 9Rank: 9

积分
4140
发表于 2022-7-16 21:08:16 | 显示全部楼层
为保住菊花,这个一定得回复!
回复 支持 反对

使用道具 举报

0

主题

269

帖子

1667

积分

4K家园VIP

Rank: 9Rank: 9Rank: 9

积分
1667
QQ
发表于 2022-7-17 11:21:16 | 显示全部楼层
楼主辛苦了,谢谢楼主,感谢楼主分享,楼主好人一生平安!!!
回复 支持 反对

使用道具 举报

0

主题

10

帖子

71

积分

新手上路

Rank: 1

积分
71
发表于 2022-7-17 18:18:28 | 显示全部楼层
谢谢楼主分享
回复 支持 反对

使用道具 举报

0

主题

8321

帖子

1万

积分

4K家园VIP

Rank: 9Rank: 9Rank: 9

积分
19318
发表于 2022-7-17 22:29:49 | 显示全部楼层
太好啦&萬分感謝版主的無私發佈分享%
回复 支持 反对

使用道具 举报

1

主题

1755

帖子

4873

积分

4K家园VIP

Rank: 9Rank: 9Rank: 9

积分
4873
发表于 2022-7-19 02:22:08 | 显示全部楼层
众里寻他千百度,蓦然回首在这里!
回复 支持 反对

使用道具 举报

3

主题

1716

帖子

4742

积分

4K家园VIP

Rank: 9Rank: 9Rank: 9

积分
4742
发表于 2022-7-19 09:40:24 | 显示全部楼层
为保住菊花,这个一定得回复!
回复 支持 反对

使用道具 举报

11

主题

1275

帖子

3809

积分

4K家园VIP

Rank: 9Rank: 9Rank: 9

积分
3809
发表于 2022-7-22 17:33:34 | 显示全部楼层
还有没有别的资源,多分享些
回复 支持 反对

使用道具 举报

0

主题

21

帖子

99

积分

4K家园VIP

Rank: 9Rank: 9Rank: 9

积分
99
发表于 2022-7-24 12:55:26 | 显示全部楼层
感谢分享!
回复

使用道具 举报

4

主题

1335

帖子

4025

积分

4K家园VIP

Rank: 9Rank: 9Rank: 9

积分
4025
发表于 2022-7-30 22:58:52 来自手机 | 显示全部楼层
垃圾
回复 支持 反对

使用道具 举报

您需要登录后才可以回帖 登录 | 立即注册

本版积分规则

精彩图文
Archiver|手机版|TAG|Sitemap|新帖|专题|联系我们:邮箱: 4kjia.com@gmail.com   

4k家园   ©2019