[4K电影] 甜心女孩 [简繁中字] / Sweet Girl (2021) 4K高清版本下载

[复制链接]

2118

主题

2259

帖子

1万

积分

超级版主

Rank: 8Rank: 8

积分
16577
 楼主| 发表于 2022-7-17 20:53:41 | 显示全部楼层 |阅读模式

135350hu95in01015ovi1a.png

◎译  名 甜心女孩 / 护女煞星(台)
◎片  名 Sweet Girl
◎年  代 2021
◎产  地 美国
◎类  别 剧情 / 动作 / 惊悚
◎语  言 英语
◎上映日期 2021-08-20(美国)
◎IMDb评分 5.5/10 from 31236 users
◎IMDb链接 https://www.imdb.com/title/tt10731768/
◎豆瓣评分 5.5/10 from 2232 users
◎豆瓣链接 https://movie.douban.com/subject/34778519/
◎片  长 109分钟
◎导  演 布莱恩·安德鲁·门多萨 Brian Andrew Mendoza
◎编  剧 菲利普·艾斯纳 Philip Eisner / 格雷格·赫维兹 Gregg Hurwitz / 威尔·斯特普尔斯 Will Staples
◎演  员 杰森·莫玛 Jason Momoa
       伊莎贝拉·莫奈 Isabela Moner
       阿德里娅·阿霍纳 Adria Arjona
       艾米·布伦尼曼 Amy Brenneman
       迈克尔·雷蒙德-詹姆斯 Michael Raymond-James
       凯蒂·M·奥布莱恩 Katy M. O'Brian
       贾斯汀·巴萨 Justin Bartha
       曼努埃尔·加西亚-鲁尔福 Manuel Garcia-Rulfo
       布莱恩·豪威 Brian Howe
       内尔森·富兰克林 Nelson Franklin
       雷吉·李 Reggie Lee
       莱克斯·斯科特·戴维斯 Lex Scott Davis
       拉扎·杰夫里 Raza Jaffrey
       多米尼克·福穆萨 Dominic Fumusa
       戴尔·帕文斯基 Dale Pavinski
       米丽娜·里韦罗 Milena Rivero
       威尔·布拉格罗夫 Will Blagrove
       詹妮弗·克里斯塔·帕尔默 Jennifer Christa Palmer
       威廉·卡尼亚 William Kania
       瑞奇·麦克道尔 Rickie McDowell
       Devin Reeve Devin Reeve
       Josephine Zoumanigui
       玛丽莎·托梅 Marisa Tomei
       布莱恩·安德鲁·门多萨 Brian Andrew Mendoza


◎简  介

  爱家男子雷·库珀发誓要让制药公司付出代价,因为在他的妻子(阿德里娅·阿霍纳饰)死于癌症之前,该公司将一种或能救命的药物从市场上撤下。然而,这场真相探寻之旅却让他和女儿瑞秋(伊莎贝拉·梅塞德饰)陷入险境,自此雷的任务变成了复仇,以保护自己唯一的家人。

Video
ID : 1
Format : HEVC
Format/Info : High Efficiency Video Coding
Format profile : Main 10@L5@Main
HDR format : Dolby Vision, Version 1.0, dvhe.05.06, BL+RPU
Codec ID : dvhe
Codec ID/Info : High Efficiency Video Coding with Dolby Vision
Duration : 1 h 50 min
Bit rate : 15.5 Mb/s
Width : 3 840 pixels
Height : 2 160 pixels
Display aspect ratio : 16:9
Frame rate mode : Constant
Frame rate : 24.000 FPS
Color space : YUV
Chroma subsampling : 4:2:0
Bit depth : 10 bits
Bits/(Pixel*Frame) : 0.078
Stream size : 12.0 GiB (95%)
Default : Yes
Alternate group : 1
Encoded date : UTC 2022-07-17 09:00:57
Tagged date : UTC 2022-07-17 09:04:41
Color range : Full
Codec configuration box : hvcC+dvcC

Audio
ID : 2
Format : E-AC-3 JOC
Format/Info : Enhanced AC-3 with Joint Object Coding
Commercial name : Dolby Digital Plus with Dolby Atmos
Codec ID : ec-3
Duration : 1 h 50 min
Bit rate mode : Constant
Bit rate : 768 kb/s
Maximum bit rate : 811 kb/s
Channel(s) : 6 channels
Channel layout : L R C LFE Ls Rs
Sampling rate : 48.0 kHz
Frame rate : 31.250 FPS (1536 SPF)
Compression mode : Lossy
Stream size : 606 MiB (5%)
Title : English
Language : English
Service kind : Complete Main
Default : Yes
Alternate group : 1
Tagged date : UTC 2022-07-17 09:04:41
Complexity index : Not present / 16
Number of dynamic objects : 15
Bed channel count : 1 channel
Bed channel configuration : LFE

Text #1
ID : 3
Format : Timed Text
Codec ID : tx3g
Duration : 1 h 45 min
Bit rate mode : Variable
Bit rate : 61 b/s
Frame rate : 0.455 FPS
Stream size : 47.6 KiB (0%)
Title : English
Language : English
Forced : No
Encoded date : UTC 2022-07-17 09:04:39
Tagged date : UTC 2022-07-17 09:04:41

Text #2
ID : 4
Format : Timed Text
Codec ID : tx3g
Duration : 1 h 48 min
Bit rate mode : Variable
Bit rate : 64 b/s
Frame rate : 0.281 FPS
Stream size : 50.9 KiB (0%)
Title : Arabic
Language : Arabic
Forced : No
Encoded date : UTC 2022-07-17 09:04:39
Tagged date : UTC 2022-07-17 09:04:41

Text #3
ID : 5
Format : Timed Text
Codec ID : tx3g
Duration : 1 h 48 min
Bit rate mode : Variable
Bit rate : 38 b/s
Frame rate : 0.280 FPS
Stream size : 29.7 KiB (0%)
Title : 中文(简体)
Language : 中文
Forced : No
Encoded date : UTC 2022-07-17 09:04:39
Tagged date : UTC 2022-07-17 09:04:41

Text #4
ID : 6
Format : Timed Text
Codec ID : tx3g
Duration : 1 h 48 min
Bit rate mode : Variable
Bit rate : 40 b/s
Frame rate : 0.284 FPS
Stream size : 31.8 KiB (0%)
Title : 中文(繁体)
Language : 中文
Forced : No
Encoded date : UTC 2022-07-17 09:04:39
Tagged date : UTC 2022-07-17 09:04:41


Text #5
ID : 7
Format : Timed Text
Codec ID : tx3g
Duration : 1 h 48 min
Bit rate mode : Variable
Bit rate : 33 b/s
Frame rate : 0.276 FPS
Stream size : 26.5 KiB (0%)
Title : Croatian
Language : Croatian
Forced : No
Encoded date : UTC 2022-07-17 09:04:39
Tagged date : UTC 2022-07-17 09:04:41

Text #6
ID : 8
Format : Timed Text
Codec ID : tx3g
Duration : 1 h 48 min
Bit rate mode : Variable
Bit rate : 36 b/s
Frame rate : 0.271 FPS
Stream size : 28.8 KiB (0%)
Title : Czech
Language : Czech
Forced : No
Encoded date : UTC 2022-07-17 09:04:39
Tagged date : UTC 2022-07-17 09:04:41

Text #7
ID : 9
Format : Timed Text
Codec ID : tx3g
Duration : 1 h 48 min
Bit rate mode : Variable
Bit rate : 36 b/s
Frame rate : 0.256 FPS
Stream size : 28.4 KiB (0%)
Title : Danish
Language : Danish
Forced : No
Encoded date : UTC 2022-07-17 09:04:39
Tagged date : UTC 2022-07-17 09:04:41

Text #8
ID : 10
Format : Timed Text
Codec ID : tx3g
Duration : 1 h 48 min
Bit rate mode : Variable
Bit rate : 34 b/s
Frame rate : 0.255 FPS
Stream size : 27.0 KiB (0%)
Title : Dutch
Language : Dutch
Forced : No
Encoded date : UTC 2022-07-17 09:04:39
Tagged date : UTC 2022-07-17 09:04:41

Text #9
ID : 11
Format : Timed Text
Codec ID : tx3g
Duration : 1 h 48 min
Bit rate mode : Variable
Bit rate : 35 b/s
Frame rate : 0.258 FPS
Stream size : 27.6 KiB (0%)
Title : Finnish
Language : Finnish
Forced : No
Encoded date : UTC 2022-07-17 09:04:39
Tagged date : UTC 2022-07-17 09:04:41

Text #10
ID : 12
Format : Timed Text
Codec ID : tx3g
Duration : 1 h 48 min
Bit rate mode : Variable
Bit rate : 38 b/s
Frame rate : 0.266 FPS
Stream size : 29.7 KiB (0%)
Title : French
Language : French
Forced : No
Encoded date : UTC 2022-07-17 09:04:39
Tagged date : UTC 2022-07-17 09:04:41

Text #11
ID : 13
Format : Timed Text
Codec ID : tx3g
Duration : 1 h 48 min
Bit rate mode : Variable
Bit rate : 37 b/s
Frame rate : 0.265 FPS
Stream size : 29.6 KiB (0%)
Title : German
Language : German
Forced : No
Encoded date : UTC 2022-07-17 09:04:39
Tagged date : UTC 2022-07-17 09:04:41

Text #12
ID : 14
Format : Timed Text
Codec ID : tx3g
Duration : 1 h 48 min
Bit rate mode : Variable
Bit rate : 61 b/s
Frame rate : 0.279 FPS
Stream size : 48.5 KiB (0%)
Title : Greek
Language : Greek
Forced : No
Encoded date : UTC 2022-07-17 09:04:39
Tagged date : UTC 2022-07-17 09:04:41

Text #13
ID : 15
Format : Timed Text
Codec ID : tx3g
Duration : 1 h 48 min
Bit rate mode : Variable
Bit rate : 61 b/s
Frame rate : 0.280 FPS
Stream size : 48.3 KiB (0%)
Title : Hebrew
Language : Hebrew
Forced : No
Encoded date : UTC 2022-07-17 09:04:40
Tagged date : UTC 2022-07-17 09:04:41

Text #14
ID : 16
Format : Timed Text
Codec ID : tx3g
Duration : 1 h 48 min
Bit rate mode : Variable
Bit rate : 36 b/s
Frame rate : 0.263 FPS
Stream size : 28.2 KiB (0%)
Title : Hungarian
Language : Hungarian
Forced : No
Encoded date : UTC 2022-07-17 09:04:40
Tagged date : UTC 2022-07-17 09:04:41

Text #15
ID : 17
Format : Timed Text
Codec ID : tx3g
Duration : 1 h 48 min
Bit rate mode : Variable
Bit rate : 37 b/s
Frame rate : 0.280 FPS
Stream size : 29.3 KiB (0%)
Title : Indonesian
Language : Indonesian
Forced : No
Encoded date : UTC 2022-07-17 09:04:40
Tagged date : UTC 2022-07-17 09:04:41

Text #16
ID : 18
Format : Timed Text
Codec ID : tx3g
Duration : 1 h 48 min
Bit rate mode : Variable
Bit rate : 36 b/s
Frame rate : 0.267 FPS
Stream size : 28.2 KiB (0%)
Title : Italian
Language : Italian
Forced : No
Encoded date : UTC 2022-07-17 09:04:40
Tagged date : UTC 2022-07-17 09:04:41

Text #17
ID : 19
Format : Timed Text
Codec ID : tx3g
Duration : 1 h 48 min
Bit rate mode : Variable
Bit rate : 34 b/s
Frame rate : 0.271 FPS
Stream size : 26.8 KiB (0%)
Title : Japanese
Language : Japanese
Forced : No
Encoded date : UTC 2022-07-17 09:04:40
Tagged date : UTC 2022-07-17 09:04:41

Text #18
ID : 20
Format : Timed Text
Codec ID : tx3g
Duration : 1 h 48 min
Bit rate mode : Variable
Bit rate : 48 b/s
Frame rate : 0.300 FPS
Stream size : 37.7 KiB (0%)
Title : Korean
Language : Korean
Forced : No
Encoded date : UTC 2022-07-17 09:04:40
Tagged date : UTC 2022-07-17 09:04:41

Text #19
ID : 21
Format : Timed Text
Codec ID : tx3g
Duration : 1 h 48 min
Bit rate mode : Variable
Bit rate : 36 b/s
Frame rate : 0.280 FPS
Stream size : 28.7 KiB (0%)
Title : Malay
Language : Malay
Forced : No
Encoded date : UTC 2022-07-17 09:04:40
Tagged date : UTC 2022-07-17 09:04:41

Text #20
ID : 22
Format : Timed Text
Codec ID : tx3g
Duration : 1 h 48 min
Bit rate mode : Variable
Bit rate : 37 b/s
Frame rate : 0.243 FPS
Stream size : 29.7 KiB (0%)
Title : Norwegian
Language : Norwegian Bokmal
Forced : No
Encoded date : UTC 2022-07-17 09:04:40
Tagged date : UTC 2022-07-17 09:04:41

Text #21
ID : 23
Format : Timed Text
Codec ID : tx3g
Duration : 1 h 48 min
Bit rate mode : Variable
Bit rate : 36 b/s
Frame rate : 0.288 FPS
Stream size : 28.7 KiB (0%)
Title : Polish
Language : Polish
Forced : No
Encoded date : UTC 2022-07-17 09:04:40
Tagged date : UTC 2022-07-17 09:04:41

Text #22
ID : 24
Format : Timed Text
Codec ID : tx3g
Duration : 1 h 48 min
Bit rate mode : Variable
Bit rate : 36 b/s
Frame rate : 0.275 FPS
Stream size : 28.6 KiB (0%)
Title : Portuguese
Language : Portuguese
Forced : No
Encoded date : UTC 2022-07-17 09:04:40
Tagged date : UTC 2022-07-17 09:04:41

Text #23
ID : 25
Format : Timed Text
Codec ID : tx3g
Duration : 1 h 48 min
Bit rate mode : Variable
Bit rate : 37 b/s
Frame rate : 0.279 FPS
Stream size : 29.1 KiB (0%)
Title : Portuguese
Language : Portuguese
Forced : No
Encoded date : UTC 2022-07-17 09:04:40
Tagged date : UTC 2022-07-17 09:04:41

Text #24
ID : 26
Format : Timed Text
Codec ID : tx3g
Duration : 1 h 42 min
Bit rate mode : Variable
Bit rate : 41 b/s
Frame rate : 0.272 FPS
Stream size : 30.8 KiB (0%)
Title : Romanian
Language : Romanian
Forced : No
Encoded date : UTC 2022-07-17 09:04:40
Tagged date : UTC 2022-07-17 09:04:41

Text #25
ID : 27
Format : Timed Text
Codec ID : tx3g
Duration : 1 h 48 min
Bit rate mode : Variable
Bit rate : 62 b/s
Frame rate : 0.279 FPS
Stream size : 48.9 KiB (0%)
Title : Russian
Language : Russian
Forced : No
Encoded date : UTC 2022-07-17 09:04:40
Tagged date : UTC 2022-07-17 09:04:41

Text #26
ID : 28
Format : Timed Text
Codec ID : tx3g
Duration : 1 h 48 min
Bit rate mode : Variable
Bit rate : 36 b/s
Frame rate : 0.269 FPS
Stream size : 28.7 KiB (0%)
Title : Spanish-EU
Language : Spanish
Forced : No
Encoded date : UTC 2022-07-17 09:04:41
Tagged date : UTC 2022-07-17 09:04:41

Text #27
ID : 29
Format : Timed Text
Codec ID : tx3g
Duration : 1 h 48 min
Bit rate mode : Variable
Bit rate : 36 b/s
Frame rate : 0.279 FPS
Stream size : 28.6 KiB (0%)
Title : Spanish-EU
Language : Spanish
Forced : No
Encoded date : UTC 2022-07-17 09:04:41
Tagged date : UTC 2022-07-17 09:04:41

Text #28
ID : 30
Format : Timed Text
Codec ID : tx3g
Duration : 1 h 48 min
Bit rate mode : Variable
Bit rate : 36 b/s
Frame rate : 0.252 FPS
Stream size : 28.3 KiB (0%)
Title : Swedish
Language : Swedish
Forced : No
Encoded date : UTC 2022-07-17 09:04:41
Tagged date : UTC 2022-07-17 09:04:41

Text #29
ID : 31
Format : Timed Text
Codec ID : tx3g
Duration : 1 h 48 min
Bit rate mode : Variable
Bit rate : 94 b/s
Frame rate : 0.281 FPS
Stream size : 74.1 KiB (0%)
Title : Thai
Language : Thai
Forced : No
Encoded date : UTC 2022-07-17 09:04:41
Tagged date : UTC 2022-07-17 09:04:41

Text #30
ID : 32
Format : Timed Text
Codec ID : tx3g
Duration : 1 h 48 min
Bit rate mode : Variable
Bit rate : 37 b/s
Frame rate : 0.247 FPS
Stream size : 29.1 KiB (0%)
Title : Turkish
Language : Turkish
Forced : No
Encoded date : UTC 2022-07-17 09:04:41
Tagged date : UTC 2022-07-17 09:04:41

Text #31
ID : 33
Format : Timed Text
Codec ID : tx3g
Duration : 1 h 48 min
Bit rate mode : Variable
Bit rate : 58 b/s
Frame rate : 0.281 FPS
Stream size : 45.8 KiB (0%)
Title : Ukrainian
Language : Ukrainian
Forced : No
Encoded date : UTC 2022-07-17 09:04:41
Tagged date : UTC 2022-07-17 09:04:41

Text #32
ID : 34
Format : Timed Text
Codec ID : tx3g
Duration : 1 h 48 min
Bit rate mode : Variable
Bit rate : 52 b/s
Frame rate : 0.279 FPS
Stream size : 41.3 KiB (0%)
Title : Vietnamese
Language : Vietnamese
Forced : No
Encoded date : UTC 2022-07-17 09:04:41
Tagged date : UTC 2022-07-17 09:04:41


资源速度为零或资源敏感被和谐时,推荐使用qBittorrent等下载软件,有条件的推荐115更好的下载软件!

下载地址:


游客,如果您要查看本帖隐藏内容请回复

游客,如果您要查看本帖隐藏内容请回复

游客,如果您要查看本帖隐藏内容请回复



相关其他看4K高清版本链接:甜心女孩(内封简繁中字)/ Sweet Girl (2021) 4K高清版本下载




上一篇:斯宾塞的机密任务 [简繁中字] (2020) 4K高清版本下载
下一篇:乔蒂的烦恼 [简繁中字] / Tall Girl (2019) 4K高清版本下载
回复

使用道具 举报

3

主题

1748

帖子

4784

积分

4K家园VIP

Rank: 9Rank: 9Rank: 9

积分
4784
发表于 2022-7-17 20:53:44 | 显示全部楼层
元芳你怎么看?
回复 支持 反对

使用道具 举报

2

主题

1355

帖子

4085

积分

4K家园VIP

Rank: 9Rank: 9Rank: 9

积分
4085
发表于 2022-7-17 22:16:03 | 显示全部楼层
占坑编辑ing
回复 支持 反对

使用道具 举报

62

主题

1608

帖子

4660

积分

4K家园VIP

Rank: 9Rank: 9Rank: 9

积分
4660
发表于 2022-7-17 22:18:33 | 显示全部楼层
这么强,支持楼主,佩服
回复 支持 反对

使用道具 举报

0

主题

8321

帖子

1万

积分

4K家园VIP

Rank: 9Rank: 9Rank: 9

积分
19318
发表于 2022-7-17 22:29:04 | 显示全部楼层
太好啦&萬分感謝版主的無私發佈分享%
回复 支持 反对

使用道具 举报

51

主题

1534

帖子

4408

积分

4K家园VIP

Rank: 9Rank: 9Rank: 9

积分
4408
发表于 2022-7-18 01:40:14 | 显示全部楼层
前排支持下了哦~
回复 支持 反对

使用道具 举报

1

主题

1319

帖子

3775

积分

4K家园VIP

Rank: 9Rank: 9Rank: 9

积分
3775
发表于 2022-7-18 06:21:44 | 显示全部楼层
支持一下楼主发表的内容
回复 支持 反对

使用道具 举报

您需要登录后才可以回帖 登录 | 立即注册

本版积分规则

精彩图文
Archiver|手机版|TAG|Sitemap|新帖|专题|联系我们:邮箱: 4kjia.com@gmail.com   

4k家园   ©2019