[4K电影] 乔蒂的烦恼 [简繁中字] / Tall Girl (2019) 4K高清版本下载

[复制链接]

2118

主题

2259

帖子

1万

积分

超级版主

Rank: 8Rank: 8

积分
16577
 楼主| 发表于 2022-7-17 21:12:31 | 显示全部楼层 |阅读模式

QQ图片20220717210814_副本.png

◎译  名 女孩我最高 / 乔蒂的烦恼 / 爱有六呎高 / 高个女孩
◎片  名 Tall Girl
◎年  代 2019
◎产  地 美国
◎类  别 喜剧
◎语  言 英语
◎上映日期 2019-09-13(美国)
◎IMDb链接 http://www.imdb.com/title/tt9252508
◎豆瓣评分 0/10 from 0 users
◎豆瓣链接 https://movie.douban.com/subject/33397766/
◎片  长 101分钟
◎导  演 恩辛哈·斯图尔特 Nzingha Stewart
◎编  剧 萨姆·沃尔夫森 Sam Wolfson
◎主  演 安吉拉·金赛 Angela Kinsey
      斯蒂夫·扎恩 Steve Zahn
      帕里斯·贝尔克 Paris Berelc
      塞布丽娜·卡彭特 Sabrina Carpenter
      格里芬·格鲁克 Griffin Gluck
      艾娃·米歇尔 Ava Michelle
      卢克·艾斯纳 Luke Eisner
      杰森·罗格尔 Jason Rogel
      特里纳·拉法尔格 Trina LaFargue
      格拉伦·布莱恩特·班克斯 Gralen Bryant Banks
      托尼亚·马尔多纳多 Tonya Maldonado
      Dana Abercrombie
      Amy Le
      Candi Brooks
      Kelly Murtagh
      Tracy Brotherton
      Conway Solomon
      Anjelika Washington
      Roman Armstrong
      Shane Guilbeau
      Todd Nasca
      Pride Grinn
      Christopher Paul Horne
      Gordon Dexheimer


◎简  介

  乔蒂(艾娃·米歇尔饰)一直是学校里个子最高的女孩,但她对此事一直感到不自在。16 年里,乔蒂一直懒懒散散地生活,被同学们取笑,直到她遇见了斯蒂格(卢克·艾斯纳饰)。斯蒂格是一名看似完美的瑞典留学生,个子甚至比乔蒂还高。乔蒂的新对象给她的生活带来了天翻覆地的变化,并且使她陷入了一段令人惊讶的三角恋,但在两位好友(格里芬·格鲁克和安杰利卡·华盛顿饰)和选美皇后姐姐哈珀(塞布丽娜·卡彭特饰)的帮助下,乔蒂意识到,自己远比外表带给她的不安全感更强大。《乔蒂的烦恼》是导演恩辛哈·斯图尔特的首部剧情片,讲述了关于找回自信、不再懒散、重新振作的成长故事,既暖心又幽默。

Video
ID : 1
Format : HEVC
Format/Info : High Efficiency Video Coding
Format profile : Main 10@L5@Main
HDR format : Dolby Vision, Version 1.0, dvhe.05.06, BL+RPU
Codec ID : dvhe
Codec ID/Info : High Efficiency Video Coding with Dolby Vision
Duration : 1 h 43 min
Bit rate : 15.6 Mb/s
Width : 3 840 pixels
Height : 2 160 pixels
Display aspect ratio : 16:9
Frame rate mode : Constant
Frame rate : 23.976 (24000/1001) FPS
Color space : YUV
Chroma subsampling : 4:2:0
Bit depth : 10 bits
Bits/(Pixel*Frame) : 0.078
Stream size : 11.3 GiB (96%)
Default : Yes
Alternate group : 1
Encoded date : UTC 2022-07-17 09:01:30
Tagged date : UTC 2022-07-17 09:04:34
Color range : Full
Codec configuration box : hvcC+dvcC

Audio
ID : 2
Format : E-AC-3
Format/Info : Enhanced AC-3
Commercial name : Dolby Digital Plus
Codec ID : ec-3
Duration : 1 h 43 min
Bit rate mode : Constant
Bit rate : 640 kb/s
Maximum bit rate : 676 kb/s
Channel(s) : 6 channels
Channel layout : L R C LFE Ls Rs
Sampling rate : 48.0 kHz
Frame rate : 31.250 FPS (1536 SPF)
Compression mode : Lossy
Stream size : 473 MiB (4%)
Title : English
Language : English
Service kind : Complete Main
Default : Yes
Alternate group : 1
Tagged date : UTC 2022-07-17 09:04:34

Text #1
ID : 3
Format : Timed Text
Codec ID : tx3g
Duration : 1 h 41 min
Bit rate mode : Variable
Bit rate : 92 b/s
Frame rate : 0.608 FPS
Stream size : 68.3 KiB (0%)
Title : English
Language : English
Forced : No
Encoded date : UTC 2022-07-17 09:04:26
Tagged date : UTC 2022-07-17 09:04:34

Text #2
ID : 4
Format : Timed Text
Codec ID : tx3g
Duration : 1 h 41 min
Bit rate mode : Variable
Bit rate : 118 b/s
Frame rate : 0.506 FPS
Stream size : 87.6 KiB (0%)
Title : Arabic
Language : Arabic
Forced : No
Encoded date : UTC 2022-07-17 09:04:26
Tagged date : UTC 2022-07-17 09:04:34

Text #3
ID : 5
Format : Timed Text
Codec ID : tx3g
Duration : 1 h 36 min
Bit rate mode : Variable
Bit rate : 76 b/s
Frame rate : 0.527 FPS
Stream size : 54.0 KiB (0%)
Title : 中文(简体)
Language : 中文
Forced : No
Encoded date : UTC 2022-07-17 09:04:28
Tagged date : UTC 2022-07-17 09:04:34

Text #4
ID : 6
Format : Timed Text
Codec ID : tx3g
Duration : 1 h 36 min
Bit rate mode : Variable
Bit rate : 75 b/s
Frame rate : 0.523 FPS
Stream size : 52.9 KiB (0%)
Title : 中文(繁体)
Language : 中文
Forced : No
Encoded date : UTC 2022-07-17 09:04:29
Tagged date : UTC 2022-07-17 09:04:34


Text #5
ID : 7
Format : Timed Text
Codec ID : tx3g
Duration : 1 h 41 min
Bit rate mode : Variable
Bit rate : 59 b/s
Frame rate : 0.481 FPS
Stream size : 44.0 KiB (0%)
Title : Croatian
Language : Croatian
Forced : No
Encoded date : UTC 2022-07-17 09:04:29
Tagged date : UTC 2022-07-17 09:04:34

Text #6
ID : 8
Format : Timed Text
Codec ID : tx3g
Duration : 1 h 37 min
Bit rate mode : Variable
Bit rate : 66 b/s
Frame rate : 0.343 FPS
Stream size : 46.6 KiB (0%)
Title : Czech
Language : Czech
Forced : No
Encoded date : UTC 2022-07-17 09:04:29
Tagged date : UTC 2022-07-17 09:04:34

Text #7
ID : 9
Format : Timed Text
Codec ID : tx3g
Duration : 1 h 36 min
Bit rate mode : Variable
Bit rate : 63 b/s
Frame rate : 0.436 FPS
Stream size : 44.5 KiB (0%)
Title : Danish
Language : Danish
Forced : No
Encoded date : UTC 2022-07-17 09:04:30
Tagged date : UTC 2022-07-17 09:04:34

Text #8
ID : 10
Format : Timed Text
Codec ID : tx3g
Duration : 1 h 36 min
Bit rate mode : Variable
Bit rate : 62 b/s
Frame rate : 0.386 FPS
Stream size : 43.7 KiB (0%)
Title : Dutch
Language : Dutch
Forced : No
Encoded date : UTC 2022-07-17 09:04:30
Tagged date : UTC 2022-07-17 09:04:34

Text #9
ID : 11
Format : Timed Text
Codec ID : tx3g
Duration : 1 h 36 min
Bit rate mode : Variable
Bit rate : 59 b/s
Frame rate : 0.369 FPS
Stream size : 41.8 KiB (0%)
Title : Finnish
Language : Finnish
Forced : No
Encoded date : UTC 2022-07-17 09:04:30
Tagged date : UTC 2022-07-17 09:04:34

Text #10
ID : 12
Format : Timed Text
Codec ID : tx3g
Duration : 1 h 36 min
Bit rate mode : Variable
Bit rate : 65 b/s
Frame rate : 0.505 FPS
Stream size : 46.3 KiB (0%)
Title : French
Language : French
Forced : No
Encoded date : UTC 2022-07-17 09:04:30
Tagged date : UTC 2022-07-17 09:04:34

Text #11
ID : 13
Format : Timed Text
Codec ID : tx3g
Duration : 1 h 36 min
Bit rate mode : Variable
Bit rate : 68 b/s
Frame rate : 0.525 FPS
Stream size : 48.6 KiB (0%)
Title : German
Language : German
Forced : No
Encoded date : UTC 2022-07-17 09:04:30
Tagged date : UTC 2022-07-17 09:04:34

Text #12
ID : 14
Format : Timed Text
Codec ID : tx3g
Duration : 1 h 36 min
Bit rate mode : Variable
Bit rate : 108 b/s
Frame rate : 0.527 FPS
Stream size : 77.0 KiB (0%)
Title : Greek
Language : Greek
Forced : No
Encoded date : UTC 2022-07-17 09:04:31
Tagged date : UTC 2022-07-17 09:04:34

Text #13
ID : 15
Format : Timed Text
Codec ID : tx3g
Duration : 1 h 36 min
Bit rate mode : Variable
Bit rate : 111 b/s
Frame rate : 0.513 FPS
Stream size : 79.0 KiB (0%)
Title : Hebrew
Language : Hebrew
Forced : No
Encoded date : UTC 2022-07-17 09:04:31
Tagged date : UTC 2022-07-17 09:04:34

Text #14
ID : 16
Format : Timed Text
Codec ID : tx3g
Duration : 1 h 36 min
Bit rate mode : Variable
Bit rate : 196 b/s
Frame rate : 0.528 FPS
Stream size : 139 KiB (0%)
Title : Hindi
Language : Hindi
Forced : No
Encoded date : UTC 2022-07-17 09:04:32
Tagged date : UTC 2022-07-17 09:04:34

Text #15
ID : 17
Format : Timed Text
Codec ID : tx3g
Duration : 1 h 36 min
Bit rate mode : Variable
Bit rate : 67 b/s
Frame rate : 0.481 FPS
Stream size : 47.2 KiB (0%)
Title : Hungarian
Language : Hungarian
Forced : No
Encoded date : UTC 2022-07-17 09:04:32
Tagged date : UTC 2022-07-17 09:04:34

Text #16
ID : 18
Format : Timed Text
Codec ID : tx3g
Duration : 1 h 36 min
Bit rate mode : Variable
Bit rate : 72 b/s
Frame rate : 0.524 FPS
Stream size : 51.2 KiB (0%)
Title : Indonesian
Language : Indonesian
Forced : No
Encoded date : UTC 2022-07-17 09:04:32
Tagged date : UTC 2022-07-17 09:04:34

Text #17
ID : 19
Format : Timed Text
Codec ID : tx3g
Duration : 1 h 41 min
Bit rate mode : Variable
Bit rate : 65 b/s
Frame rate : 0.487 FPS
Stream size : 48.0 KiB (0%)
Title : Italian
Language : Italian
Forced : No
Encoded date : UTC 2022-07-17 09:04:32
Tagged date : UTC 2022-07-17 09:04:34

Text #18
ID : 20
Format : Timed Text
Codec ID : tx3g
Duration : 1 h 36 min
Bit rate mode : Variable
Bit rate : 73 b/s
Frame rate : 0.485 FPS
Stream size : 51.5 KiB (0%)
Title : Japanese
Language : Japanese
Forced : No
Encoded date : UTC 2022-07-17 09:04:32
Tagged date : UTC 2022-07-17 09:04:34

Text #19
ID : 21
Format : Timed Text
Codec ID : tx3g
Duration : 1 h 36 min
Bit rate mode : Variable
Bit rate : 80 b/s
Frame rate : 0.524 FPS
Stream size : 57.0 KiB (0%)
Title : Korean
Language : Korean
Forced : No
Encoded date : UTC 2022-07-17 09:04:33
Tagged date : UTC 2022-07-17 09:04:34

Text #20
ID : 22
Format : Timed Text
Codec ID : tx3g
Duration : 1 h 41 min
Bit rate mode : Variable
Bit rate : 63 b/s
Frame rate : 0.469 FPS
Stream size : 46.4 KiB (0%)
Title : Malay
Language : Malay
Forced : No
Encoded date : UTC 2022-07-17 09:04:33
Tagged date : UTC 2022-07-17 09:04:34

Text #21
ID : 23
Format : Timed Text
Codec ID : tx3g
Duration : 1 h 36 min
Bit rate mode : Variable
Bit rate : 64 b/s
Frame rate : 0.507 FPS
Stream size : 45.3 KiB (0%)
Title : Norwegian
Language : Norwegian Bokmal
Forced : No
Encoded date : UTC 2022-07-17 09:04:33
Tagged date : UTC 2022-07-17 09:04:34

Text #22
ID : 24
Format : Timed Text
Codec ID : tx3g
Duration : 1 h 36 min
Bit rate mode : Variable
Bit rate : 59 b/s
Frame rate : 0.466 FPS
Stream size : 42.2 KiB (0%)
Title : Polish
Language : Polish
Forced : No
Encoded date : UTC 2022-07-17 09:04:33
Tagged date : UTC 2022-07-17 09:04:34

Text #23
ID : 25
Format : Timed Text
Codec ID : tx3g
Duration : 1 h 36 min
Bit rate mode : Variable
Bit rate : 67 b/s
Frame rate : 0.523 FPS
Stream size : 47.6 KiB (0%)
Title : Portuguese
Language : Portuguese
Forced : No
Encoded date : UTC 2022-07-17 09:04:33
Tagged date : UTC 2022-07-17 09:04:34

Text #24
ID : 26
Format : Timed Text
Codec ID : tx3g
Duration : 1 h 36 min
Bit rate mode : Variable
Bit rate : 71 b/s
Frame rate : 0.525 FPS
Stream size : 50.4 KiB (0%)
Title : Portuguese
Language : Portuguese
Forced : No
Encoded date : UTC 2022-07-17 09:04:33
Tagged date : UTC 2022-07-17 09:04:34

Text #25
ID : 27
Format : Timed Text
Codec ID : tx3g
Duration : 1 h 36 min
Bit rate mode : Variable
Bit rate : 70 b/s
Frame rate : 0.532 FPS
Stream size : 49.7 KiB (0%)
Title : Romanian
Language : Romanian
Forced : No
Encoded date : UTC 2022-07-17 09:04:33
Tagged date : UTC 2022-07-17 09:04:34

Text #26
ID : 28
Format : Timed Text
Codec ID : tx3g
Duration : 1 h 36 min
Bit rate mode : Variable
Bit rate : 111 b/s
Frame rate : 0.513 FPS
Stream size : 78.6 KiB (0%)
Title : Russian
Language : Russian
Forced : No
Encoded date : UTC 2022-07-17 09:04:33
Tagged date : UTC 2022-07-17 09:04:34

Text #27
ID : 29
Format : Timed Text
Codec ID : tx3g
Duration : 1 h 36 min
Bit rate mode : Variable
Bit rate : 70 b/s
Frame rate : 0.531 FPS
Stream size : 50.0 KiB (0%)
Title : Spanish-EU
Language : Spanish
Forced : No
Encoded date : UTC 2022-07-17 09:04:33
Tagged date : UTC 2022-07-17 09:04:34

Text #28
ID : 30
Format : Timed Text
Codec ID : tx3g
Duration : 1 h 36 min
Bit rate mode : Variable
Bit rate : 63 b/s
Frame rate : 0.512 FPS
Stream size : 44.8 KiB (0%)
Title : Spanish-EU
Language : Spanish
Forced : No
Encoded date : UTC 2022-07-17 09:04:33
Tagged date : UTC 2022-07-17 09:04:34

Text #29
ID : 31
Format : Timed Text
Codec ID : tx3g
Duration : 1 h 36 min
Bit rate mode : Variable
Bit rate : 60 b/s
Frame rate : 0.389 FPS
Stream size : 42.6 KiB (0%)
Title : Swedish
Language : Swedish
Forced : No
Encoded date : UTC 2022-07-17 09:04:34
Tagged date : UTC 2022-07-17 09:04:34

Text #30
ID : 32
Format : Timed Text
Codec ID : tx3g
Duration : 1 h 36 min
Bit rate mode : Variable
Bit rate : 152 b/s
Frame rate : 0.527 FPS
Stream size : 108 KiB (0%)
Title : Thai
Language : Thai
Forced : No
Encoded date : UTC 2022-07-17 09:04:34
Tagged date : UTC 2022-07-17 09:04:34

Text #31
ID : 33
Format : Timed Text
Codec ID : tx3g
Duration : 1 h 36 min
Bit rate mode : Variable
Bit rate : 70 b/s
Frame rate : 0.526 FPS
Stream size : 49.6 KiB (0%)
Title : Turkish
Language : Turkish
Forced : No
Encoded date : UTC 2022-07-17 09:04:34
Tagged date : UTC 2022-07-17 09:04:34

Text #32
ID : 34
Format : Timed Text
Codec ID : tx3g
Duration : 1 h 41 min
Bit rate mode : Variable
Bit rate : 100 b/s
Frame rate : 0.454 FPS
Stream size : 74.2 KiB (0%)
Title : Ukrainian
Language : Ukrainian
Forced : No
Encoded date : UTC 2022-07-17 09:04:34
Tagged date : UTC 2022-07-17 09:04:34

Text #33
ID : 35
Format : Timed Text
Codec ID : tx3g
Duration : 1 h 36 min
Bit rate mode : Variable
Bit rate : 96 b/s
Frame rate : 0.526 FPS
Stream size : 68.5 KiB (0%)
Title : Vietnamese
Language : Vietnamese
Forced : No
Encoded date : UTC 2022-07-17 09:04:34
Tagged date : UTC 2022-07-17 09:04:34


资源速度为零或资源敏感被和谐时,推荐使用qBittorrent等下载软件,有条件的推荐115更好的下载软件!

下载地址:


游客,如果您要查看本帖隐藏内容请回复

游客,如果您要查看本帖隐藏内容请回复

游客,如果您要查看本帖隐藏内容请回复



相关其他4K高清版本链接:《女孩我最高/乔蒂的烦恼》4K高清下载/大小12.21GB




上一篇:甜心女孩 [简繁中字] / Sweet Girl (2021) 4K高清版本下载
下一篇:辣手保姆2:女王蜂 [简繁中字] (2019) 4K高清版本下载
回复

使用道具 举报

1

主题

1546

帖子

4486

积分

4K家园VIP

Rank: 9Rank: 9Rank: 9

积分
4486
发表于 2022-7-17 21:12:36 | 显示全部楼层
垃圾内容,路过为证。
回复 支持 反对

使用道具 举报

0

主题

1361

帖子

3905

积分

4K家园VIP

Rank: 9Rank: 9Rank: 9

积分
3905
发表于 2022-7-19 16:20:03 | 显示全部楼层
站位支持
回复 支持 反对

使用道具 举报

41

主题

1496

帖子

4288

积分

4K家园VIP

Rank: 9Rank: 9Rank: 9

积分
4288
发表于 2022-7-21 08:08:15 | 显示全部楼层
一直在看
回复 支持 反对

使用道具 举报

2

主题

1165

帖子

3513

积分

4K家园VIP

Rank: 9Rank: 9Rank: 9

积分
3513
发表于 2022-7-22 04:46:51 | 显示全部楼层
没明白
回复 支持 反对

使用道具 举报

3

主题

1301

帖子

3921

积分

4K家园VIP

Rank: 9Rank: 9Rank: 9

积分
3921
发表于 2022-7-23 06:55:08 | 显示全部楼层
佩服佩服!
回复 支持 反对

使用道具 举报

您需要登录后才可以回帖 登录 | 立即注册

本版积分规则

精彩图文
Archiver|手机版|TAG|Sitemap|新帖|专题|联系我们:邮箱: 4kjia.com@gmail.com   

4k家园   ©2019