[4K电影] 辣手保姆2:女王蜂 [简繁中字] (2019) 4K高清版本下载

[复制链接]

2163

主题

2306

帖子

1万

积分

超级版主

Rank: 8Rank: 8

积分
16861
 楼主| 发表于 2022-7-17 21:12:35 | 显示全部楼层 |阅读模式
本帖最后由 最爱4K哟 于 2022-7-17 21:14 编辑

131911nmm6oet3ixotbe4k.jpg

◎译  名 辣手保姆2:女王蜂/The Babysitter 2/撒旦保姆:血腥女王
◎片  名 The Babysitter: Killer Queen
◎年  代 2020
◎产  地 美国
◎类  别 喜剧 / 恐怖
◎语  言 英语
◎上映日期 2020-09-10(美国)
◎IMDb评分 5.8/10 from 17147 users
◎IMDb链接 https://www.imdb.com/title/tt11024272/
◎豆瓣评分 5.7/10 from 2870 users
◎豆瓣链接 https://movie.douban.com/subject/34938650/
◎片  长 101分钟
◎导  演 约瑟夫·麦克金提·尼彻 McG
◎主  演 犹大·刘易斯 Judah Lewis
      贝拉·索恩 Bella Thorne
      罗比·阿美尔 Robbie Amell
      莱丝莉·比伯 Leslie Bibb
      艾米丽·阿琳·林德 Emily Alyn Lind
      珍娜·奥尔特加 Jenna Ortega
      肯·马里诺 Ken Marino
      汉娜·梅·李 Hana Mae Lee
      安德鲁·巴切勒 Andrew Bachelor
      阿曼达·瑟妮 Amanda Cerny
      克里斯·维尔德 Chris Wylde
      卡尔·麦克道维尔 Carl McDowell
      杰森·罗格尔 Jason Rogel
      胡利奥塞萨尔·查韦斯 Juliocesar Chavez
      马克西·伊格莱西亚斯 Maxi Iglesias
      萨玛拉·维文 Samara Weaving


◎简  介

  在击败临时保姆带领的邪教两年后,科尔试图忘记过去,专注在高中学业上。但当昔日的仇敌意外归来时,科尔不得不再次智取邪恶势力。
Video
ID : 1
Format : HEVC
Format/Info : High Efficiency Video Coding
Format profile : Main 10@L5@Main
HDR format : SMPTE ST 2086, HDR10 compatible
Codec ID : V_MPEGH/ISO/HEVC
Duration : 1 h 41 min
Bit rate : 15.2 Mb/s
Width : 3 840 pixels
Height : 2 160 pixels
Display aspect ratio : 16:9
Frame rate mode : Constant
Frame rate : 24.000 FPS
Color space : YUV
Chroma subsampling : 4:2:0 (Type 2)
Bit depth : 10 bits
Bits/(Pixel*Frame) : 0.077
Stream size : 10.8 GiB (95%)
Default : Yes
Forced : No
Color range : Limited
Color primaries : BT.2020
Transfer characteristics : PQ
Matrix coefficients : BT.2020 non-constant
Mastering display color primaries : Display P3
Mastering display luminance : min: 0.0001 cd/m2, max: 1000 cd/m2
Maximum Content Light Level : 812 cd/m2
Maximum Frame-Average Light Level : 424 cd/m2

Audio
ID : 2
Format : E-AC-3 JOC
Format/Info : Enhanced AC-3 with Joint Object Coding
Commercial name : Dolby Digital Plus with Dolby Atmos
Codec ID : A_EAC3
Duration : 1 h 42 min
Bit rate mode : Constant
Bit rate : 768 kb/s
Channel(s) : 6 channels
Channel layout : L R C LFE Ls Rs
Sampling rate : 48.0 kHz
Frame rate : 31.250 FPS (1536 SPF)
Compression mode : Lossy
Stream size : 563 MiB (5%)
Language : English
Service kind : Complete Main
Default : Yes
Forced : No
Complexity index : 16
Number of dynamic objects : 15
Bed channel count : 1 channel
Bed channel configuration : LFE

Text #1
ID : 3
Format : UTF-8
Codec ID : S_TEXT/UTF8
Codec ID/Info : UTF-8 Plain Text
Duration : 1 h 40 min
Bit rate : 81 b/s
Frame rate : 0.305 FPS
Count of elements : 1835
Stream size : 59.6 KiB (0%)
Title : [CC]
Language : English
Default : No
Forced : No

Text #2
ID : 4
Format : UTF-8
Codec ID : S_TEXT/UTF8
Codec ID/Info : UTF-8 Plain Text
Duration : 1 h 40 min
Bit rate : 112 b/s
Frame rate : 0.233 FPS
Count of elements : 1403
Stream size : 82.6 KiB (0%)
Language : Arabic
Default : No
Forced : No

Text #3
ID : 5
Format : UTF-8
Codec ID : S_TEXT/UTF8
Codec ID/Info : UTF-8 Plain Text
Duration : 1 h 40 min
Bit rate : 57 b/s
Frame rate : 0.256 FPS
Count of elements : 1542
Stream size : 42.6 KiB (0%)
Language : Czech
Default : No
Forced : No

Text #4
ID : 6
Format : UTF-8
Codec ID : S_TEXT/UTF8
Codec ID/Info : UTF-8 Plain Text
Duration : 1 h 40 min
Bit rate : 52 b/s
Frame rate : 0.230 FPS
Count of elements : 1388
Stream size : 38.5 KiB (0%)
Language : Danish
Default : No
Forced : No

Text #5
ID : 7
Format : UTF-8
Codec ID : S_TEXT/UTF8
Codec ID/Info : UTF-8 Plain Text
Duration : 1 h 40 min
Bit rate : 63 b/s
Frame rate : 0.230 FPS
Count of elements : 1387
Stream size : 46.7 KiB (0%)
Language : German
Default : No
Forced : No

Text #6
ID : 8
Format : UTF-8
Codec ID : S_TEXT/UTF8
Codec ID/Info : UTF-8 Plain Text
Duration : 1 h 40 min
Bit rate : 97 b/s
Frame rate : 0.228 FPS
Count of elements : 1371
Stream size : 71.7 KiB (0%)
Language : Greek
Default : No
Forced : No

Text #7
ID : 9
Format : UTF-8
Codec ID : S_TEXT/UTF8
Codec ID/Info : UTF-8 Plain Text
Duration : 1 h 40 min
Bit rate : 56 b/s
Frame rate : 0.232 FPS
Count of elements : 1394
Stream size : 41.6 KiB (0%)
Language : Spanish
Default : No
Forced : No

Text #8
ID : 10
Format : UTF-8
Codec ID : S_TEXT/UTF8
Codec ID/Info : UTF-8 Plain Text
Duration : 1 h 40 min
Bit rate : 57 b/s
Frame rate : 0.234 FPS
Count of elements : 1408
Stream size : 42.5 KiB (0%)
Title : European
Language : Spanish
Default : No
Forced : No

Text #9
ID : 11
Format : UTF-8
Codec ID : S_TEXT/UTF8
Codec ID/Info : UTF-8 Plain Text
Duration : 1 h 40 min
Bit rate : 55 b/s
Frame rate : 0.199 FPS
Count of elements : 1198
Stream size : 40.8 KiB (0%)
Language : Finnish
Default : No
Forced : No

Text #10
ID : 12
Format : UTF-8
Codec ID : S_TEXT/UTF8
Codec ID/Info : UTF-8 Plain Text
Duration : 1 h 40 min
Bit rate : 56 b/s
Frame rate : 0.214 FPS
Count of elements : 1289
Stream size : 41.6 KiB (0%)
Language : French
Default : No
Forced : No

Text #11
ID : 13
Format : UTF-8
Codec ID : S_TEXT/UTF8
Codec ID/Info : UTF-8 Plain Text
Duration : 1 h 40 min
Bit rate : 102 b/s
Frame rate : 0.233 FPS
Count of elements : 1404
Stream size : 75.6 KiB (0%)
Language : Hebrew
Default : No
Forced : No

Text #12
ID : 14
Format : UTF-8
Codec ID : S_TEXT/UTF8
Codec ID/Info : UTF-8 Plain Text
Duration : 1 h 40 min
Bit rate : 51 b/s
Frame rate : 0.231 FPS
Count of elements : 1393
Stream size : 37.6 KiB (0%)
Language : Croatian
Default : No
Forced : No

Text #13
ID : 15
Format : UTF-8
Codec ID : S_TEXT/UTF8
Codec ID/Info : UTF-8 Plain Text
Duration : 1 h 40 min
Bit rate : 58 b/s
Frame rate : 0.228 FPS
Count of elements : 1372
Stream size : 43.4 KiB (0%)
Language : Hungarian
Default : No
Forced : No

Text #14
ID : 16
Format : UTF-8
Codec ID : S_TEXT/UTF8
Codec ID/Info : UTF-8 Plain Text
Duration : 1 h 40 min
Bit rate : 60 b/s
Frame rate : 0.234 FPS
Count of elements : 1407
Stream size : 44.7 KiB (0%)
Language : Indonesian
Default : No
Forced : No

Text #15
ID : 17
Format : UTF-8
Codec ID : S_TEXT/UTF8
Codec ID/Info : UTF-8 Plain Text
Duration : 1 h 40 min
Bit rate : 54 b/s
Frame rate : 0.250 FPS
Count of elements : 1505
Stream size : 40.3 KiB (0%)
Language : Italian
Default : No
Forced : No

Text #16
ID : 18
Format : UTF-8
Codec ID : S_TEXT/UTF8
Codec ID/Info : UTF-8 Plain Text
Duration : 1 h 40 min
Bit rate : 51 b/s
Frame rate : 0.253 FPS
Count of elements : 1525
Stream size : 37.7 KiB (0%)
Language : Japanese
Default : No
Forced : No

Text #17
ID : 19
Format : UTF-8
Codec ID : S_TEXT/UTF8
Codec ID/Info : UTF-8 Plain Text
Duration : 1 h 40 min
Bit rate : 80 b/s
Frame rate : 0.234 FPS
Count of elements : 1409
Stream size : 59.0 KiB (0%)
Language : Korean
Default : No
Forced : No

Text #18
ID : 20
Format : UTF-8
Codec ID : S_TEXT/UTF8
Codec ID/Info : UTF-8 Plain Text
Duration : 1 h 33 min
Bit rate : 61 b/s
Frame rate : 0.235 FPS
Count of elements : 1322
Stream size : 42.3 KiB (0%)
Language : Malay
Default : No
Forced : No

Text #19
ID : 21
Format : UTF-8
Codec ID : S_TEXT/UTF8
Codec ID/Info : UTF-8 Plain Text
Duration : 1 h 40 min
Bit rate : 58 b/s
Frame rate : 0.218 FPS
Count of elements : 1315
Stream size : 42.8 KiB (0%)
Language : Norwegian Bokmal
Default : No
Forced : No

Text #20
ID : 22
Format : UTF-8
Codec ID : S_TEXT/UTF8
Codec ID/Info : UTF-8 Plain Text
Duration : 1 h 40 min
Bit rate : 53 b/s
Frame rate : 0.198 FPS
Count of elements : 1193
Stream size : 39.2 KiB (0%)
Language : Dutch
Default : No
Forced : No

Text #21
ID : 23
Format : UTF-8
Codec ID : S_TEXT/UTF8
Codec ID/Info : UTF-8 Plain Text
Duration : 1 h 40 min
Bit rate : 53 b/s
Frame rate : 0.224 FPS
Count of elements : 1350
Stream size : 39.4 KiB (0%)
Language : Polish
Default : No
Forced : No

Text #22
ID : 24
Format : UTF-8
Codec ID : S_TEXT/UTF8
Codec ID/Info : UTF-8 Plain Text
Duration : 1 h 40 min
Bit rate : 58 b/s
Frame rate : 0.230 FPS
Count of elements : 1384
Stream size : 42.9 KiB (0%)
Language : Portuguese
Default : No
Forced : No

Text #23
ID : 25
Format : UTF-8
Codec ID : S_TEXT/UTF8
Codec ID/Info : UTF-8 Plain Text
Duration : 1 h 33 min
Bit rate : 61 b/s
Frame rate : 0.246 FPS
Count of elements : 1382
Stream size : 41.9 KiB (0%)
Title : Brazilian
Language : Portuguese
Default : No
Forced : No

Text #24
ID : 26
Format : UTF-8
Codec ID : S_TEXT/UTF8
Codec ID/Info : UTF-8 Plain Text
Duration : 1 h 40 min
Bit rate : 62 b/s
Frame rate : 0.232 FPS
Count of elements : 1397
Stream size : 46.0 KiB (0%)
Language : Romanian
Default : No
Forced : No

Text #25
ID : 27
Format : UTF-8
Codec ID : S_TEXT/UTF8
Codec ID/Info : UTF-8 Plain Text
Duration : 1 h 40 min
Bit rate : 98 b/s
Frame rate : 0.233 FPS
Count of elements : 1400
Stream size : 72.4 KiB (0%)
Language : Russian
Default : No
Forced : No

Text #26
ID : 28
Format : UTF-8
Codec ID : S_TEXT/UTF8
Codec ID/Info : UTF-8 Plain Text
Duration : 1 h 40 min
Bit rate : 57 b/s
Frame rate : 0.216 FPS
Count of elements : 1302
Stream size : 42.1 KiB (0%)
Language : Swedish
Default : No
Forced : No

Text #27
ID : 29
Format : UTF-8
Codec ID : S_TEXT/UTF8
Codec ID/Info : UTF-8 Plain Text
Duration : 1 h 40 min
Bit rate : 164 b/s
Frame rate : 0.235 FPS
Count of elements : 1418
Stream size : 121 KiB (0%)
Language : Thai
Default : No
Forced : No

Text #28
ID : 30
Format : UTF-8
Codec ID : S_TEXT/UTF8
Codec ID/Info : UTF-8 Plain Text
Duration : 1 h 40 min
Bit rate : 62 b/s
Frame rate : 0.228 FPS
Count of elements : 1374
Stream size : 45.7 KiB (0%)
Language : Turkish
Default : No
Forced : No

Text #29
ID : 31
Format : UTF-8
Codec ID : S_TEXT/UTF8
Codec ID/Info : UTF-8 Plain Text
Duration : 1 h 40 min
Bit rate : 83 b/s
Frame rate : 0.234 FPS
Count of elements : 1410
Stream size : 61.4 KiB (0%)
Language : Vietnamese
Default : No
Forced : No

Text #30
ID : 32
Format : UTF-8
Codec ID : S_TEXT/UTF8
Codec ID/Info : UTF-8 Plain Text
Duration : 1 h 40 min
Bit rate : 67 b/s
Frame rate : 0.234 FPS
Count of elements : 1410
Stream size : 49.4 KiB (0%)
Title : 中文(简体)
Language : 中文
Default : No
Forced : No

Text #31
ID : 33
Format : UTF-8
Codec ID : S_TEXT/UTF8
Codec ID/Info : UTF-8 Plain Text
Duration : 1 h 40 min
Bit rate : 70 b/s
Frame rate : 0.262 FPS
Count of elements : 1576
Stream size : 51.8 KiB (0%)
Title : 中文(繁体)
Language : 中文
Default : No
Forced : No

资源速度为零或资源敏感被和谐时,推荐使用qBittorrent等下载软件,有条件的推荐115更好的下载软件!

下载地址:

游客,如果您要查看本帖隐藏内容请回复

游客,如果您要查看本帖隐藏内容请回复

游客,如果您要查看本帖隐藏内容请回复



相关其他4K高清版本链接:
[4K资源首发]《辣手保姆2:女王蜂》4K高清版本下载/11.30GB
辣手保姆2:女王蜂 /The Babysitter: Killer Queen‎ (2020) 4K高清下载


上一篇:乔蒂的烦恼 [简繁中字] / Tall Girl (2019) 4K高清版本下载
下一篇:神弃之地[简繁中字]/ The Devil All the Time (2020) 4K高清版本下载
回复

使用道具 举报

37

主题

1418

帖子

4070

积分

4K家园VIP

Rank: 9Rank: 9Rank: 9

积分
4070
发表于 2022-7-17 21:13:14 | 显示全部楼层
顶顶更健康
回复 支持 反对

使用道具 举报

1

主题

1367

帖子

4117

积分

4K家园VIP

Rank: 9Rank: 9Rank: 9

积分
4117
发表于 2022-7-18 00:17:18 | 显示全部楼层
这个资源我记得是一套的,楼主还有没有
回复 支持 反对

使用道具 举报

2

主题

255

帖子

3218

积分

中级会员

Rank: 4

积分
3218
发表于 2022-7-18 08:36:10 | 显示全部楼层
谢谢分享      
回复 支持 反对

使用道具 举报

2

主题

1403

帖子

4059

积分

4K家园VIP

Rank: 9Rank: 9Rank: 9

积分
4059
发表于 2022-7-18 14:49:30 来自手机 | 显示全部楼层
元芳你怎么看?
回复 支持 反对

使用道具 举报

38

主题

1552

帖子

4436

积分

4K家园VIP

Rank: 9Rank: 9Rank: 9

积分
4436
发表于 2022-7-20 14:48:45 | 显示全部楼层
求沙发
回复 支持 反对

使用道具 举报

49

主题

1548

帖子

4476

积分

4K家园VIP

Rank: 9Rank: 9Rank: 9

积分
4476
发表于 2022-7-23 12:09:23 | 显示全部楼层
一直在看
回复 支持 反对

使用道具 举报

0

主题

17

帖子

30

积分

新手上路

Rank: 1

积分
30
发表于 2022-7-24 02:25:27 来自手机 | 显示全部楼层
66666666
回复

使用道具 举报

您需要登录后才可以回帖 登录 | 立即注册

本版积分规则

精彩图文
Archiver|手机版|TAG|Sitemap|新帖|专题|联系我们:邮箱: 4kjia.com@gmail.com   

4k家园   ©2019