[4K电影] 神弃之地[简繁中字]/ The Devil All the Time (2020) 4K高清版本下载

[复制链接]

2118

主题

2259

帖子

1万

积分

超级版主

Rank: 8Rank: 8

积分
16577
 楼主| 发表于 2022-7-17 21:28:46 | 显示全部楼层 |阅读模式

171807ch4ttf9cuucudmhi.png

◎译  名 神弃之地/恶魔每时每刻
◎片  名 The Devil All the Time
◎年  代 2020
◎产  地 美国
◎类  别 剧情/惊悚片">惊悚
◎语  言 英语
◎字  幕 中字
◎上映日期 2020-09-16(美国)
◎IMDb评分 7.1/10 from 130133 users
◎IMDb链接 https://www.imdb.com/title/tt7395114/
◎豆瓣评分 7.1/10 from 19376 users
◎豆瓣链接 https://douban.com/subject/1308807/
◎片  长 138分钟
◎导  演 安东尼奥·坎波斯 Antonio Campos
◎编  剧 安东尼奥·坎波斯 Antonio Campos / 保罗·坎波斯 Paulo Campos / 唐纳德·雷·波洛克 Donald Ray Pollock
◎主  演 汤姆·赫兰德 Tom Holland
       比尔·斯卡斯加德 Bill Skarsgård
       罗伯特·帕丁森 Robert Pattinson
       塞巴斯蒂安·斯坦 Sebastian Stan
       杰森·克拉克 Jason Clarke
       丽莉·吉欧 Riley Keough
       海莉·贝内特 Haley Bennett
       米娅·华希科沃斯卡 Mia Wasikowska
       伊莱扎·斯坎伦 Eliza Scanlen
       哈利·米尔林 Harry Melling
       道格拉斯·霍奇斯 Douglas Hodges
       格雷戈瑞·凯利 Gregory Kelly
       大卫·马尔登那多 David Maldonado
       科里·斯科特·艾伦 Cory Scott Allen
       马克·杰弗里·米勒 Mark Jeffrey Miller
       艾比·格洛弗 Abby Glover


◎简  介


   2019年2月开拍。讲述俄亥俄州偏远之地Knockemstiff,男主角Willard Russell绝望地想拯救濒死的妻子,不惜屈服于牺牲,而他的儿子(霍兰德)正从一个在学校被虐 待的孩子成长为知道何时出手的男人,角色包括一对连环杀手夫妇、一个考验人的信仰的传教士、一个腐败的当地警长(埃文斯)

Video
ID : 1
Format : HEVC
Format/Info : High Efficiency Video Coding
Format profile : Main 10@L5@Main
HDR format : SMPTE ST 2086, HDR10 compatible
Codec ID : V_MPEGH/ISO/HEVC
Duration : 2 h 17 min
Bit rate : 15.8 Mb/s
Width : 3 840 pixels
Height : 2 160 pixels
Display aspect ratio : 16:9
Frame rate mode : Constant
Frame rate : 24.000 FPS
Color space : YUV
Chroma subsampling : 4:2:0 (Type 2)
Bit depth : 10 bits
Bits/(Pixel*Frame) : 0.079
Stream size : 15.2 GiB (95%)
Default : Yes
Forced : No
Color range : Limited
Color primaries : BT.2020
Transfer characteristics : PQ
Matrix coefficients : BT.2020 non-constant
Mastering display color primaries : Display P3
Mastering display luminance : min: 0.0001 cd/m2, max: 1000 cd/m2
Maximum Content Light Level : 940 cd/m2
Maximum Frame-Average Light Level : 97 cd/m2

Audio
ID : 2
Format : E-AC-3 JOC
Format/Info : Enhanced AC-3 with Joint Object Coding
Commercial name : Dolby Digital Plus with Dolby Atmos
Codec ID : A_EAC3
Duration : 2 h 18 min
Bit rate mode : Constant
Bit rate : 768 kb/s
Channel(s) : 6 channels
Channel layout : L R C LFE Ls Rs
Sampling rate : 48.0 kHz
Frame rate : 31.250 FPS (1536 SPF)
Compression mode : Lossy
Stream size : 763 MiB (5%)
Language : English
Service kind : Complete Main
Default : Yes
Forced : No
Complexity index : 16
Number of dynamic objects : 15
Bed channel count : 1 channel
Bed channel configuration : LFE

Text #1
ID : 3
Format : UTF-8
Codec ID : S_TEXT/UTF8
Codec ID/Info : UTF-8 Plain Text
Duration : 2 h 15 min
Bit rate : 62 b/s
Frame rate : 0.251 FPS
Count of elements : 2035
Stream size : 62.1 KiB (0%)
Title : [CC]
Language : English
Default : No
Forced : No

Text #2
ID : 4
Format : UTF-8
Codec ID : S_TEXT/UTF8
Codec ID/Info : UTF-8 Plain Text
Duration : 2 h 11 min
Bit rate : 85 b/s
Frame rate : 0.211 FPS
Count of elements : 1657
Stream size : 82.3 KiB (0%)
Language : Arabic
Default : No
Forced : No

Text #3
ID : 5
Format : UTF-8
Codec ID : S_TEXT/UTF8
Codec ID/Info : UTF-8 Plain Text
Duration : 2 h 11 min
Bit rate : 48 b/s
Frame rate : 0.210 FPS
Count of elements : 1658
Stream size : 46.9 KiB (0%)
Language : Czech
Default : No
Forced : No

Text #4
ID : 6
Format : UTF-8
Codec ID : S_TEXT/UTF8
Codec ID/Info : UTF-8 Plain Text
Duration : 2 h 11 min
Bit rate : 41 b/s
Frame rate : 0.211 FPS
Count of elements : 1661
Stream size : 39.7 KiB (0%)
Language : Danish
Default : No
Forced : No

Text #5
ID : 7
Format : UTF-8
Codec ID : S_TEXT/UTF8
Codec ID/Info : UTF-8 Plain Text
Duration : 2 h 11 min
Bit rate : 47 b/s
Frame rate : 0.185 FPS
Count of elements : 1458
Stream size : 45.4 KiB (0%)
Language : German
Default : No
Forced : No

Text #6
ID : 8
Format : UTF-8
Codec ID : S_TEXT/UTF8
Codec ID/Info : UTF-8 Plain Text
Duration : 2 h 17 min
Bit rate : 74 b/s
Frame rate : 0.201 FPS
Count of elements : 1657
Stream size : 75.2 KiB (0%)
Language : Greek
Default : No
Forced : No

Text #7
ID : 9
Format : UTF-8
Codec ID : S_TEXT/UTF8
Codec ID/Info : UTF-8 Plain Text
Duration : 2 h 11 min
Bit rate : 44 b/s
Frame rate : 0.204 FPS
Count of elements : 1609
Stream size : 42.9 KiB (0%)
Language : Spanish
Default : No
Forced : No

Text #8
ID : 10
Format : UTF-8
Codec ID : S_TEXT/UTF8
Codec ID/Info : UTF-8 Plain Text
Duration : 2 h 11 min
Bit rate : 46 b/s
Frame rate : 0.207 FPS
Count of elements : 1628
Stream size : 45.0 KiB (0%)
Title : European
Language : Spanish
Default : No
Forced : No

Text #9
ID : 11
Format : UTF-8
Codec ID : S_TEXT/UTF8
Codec ID/Info : UTF-8 Plain Text
Duration : 2 h 11 min
Bit rate : 47 b/s
Frame rate : 0.204 FPS
Count of elements : 1604
Stream size : 45.9 KiB (0%)
Language : Finnish
Default : No
Forced : No

Text #10
ID : 12
Format : UTF-8
Codec ID : S_TEXT/UTF8
Codec ID/Info : UTF-8 Plain Text
Duration : 2 h 11 min
Bit rate : 45 b/s
Frame rate : 0.206 FPS
Count of elements : 1623
Stream size : 43.6 KiB (0%)
Language : French
Default : No
Forced : No

Text #11
ID : 13
Format : UTF-8
Codec ID : S_TEXT/UTF8
Codec ID/Info : UTF-8 Plain Text
Duration : 2 h 11 min
Bit rate : 75 b/s
Frame rate : 0.201 FPS
Count of elements : 1584
Stream size : 72.6 KiB (0%)
Language : Hebrew
Default : No
Forced : No

Text #12
ID : 14
Format : UTF-8
Codec ID : S_TEXT/UTF8
Codec ID/Info : UTF-8 Plain Text
Duration : 2 h 17 min
Bit rate : 41 b/s
Frame rate : 0.198 FPS
Count of elements : 1636
Stream size : 41.7 KiB (0%)
Language : Croatian
Default : No
Forced : No

Text #13
ID : 15
Format : UTF-8
Codec ID : S_TEXT/UTF8
Codec ID/Info : UTF-8 Plain Text
Duration : 2 h 17 min
Bit rate : 46 b/s
Frame rate : 0.193 FPS
Count of elements : 1592
Stream size : 46.9 KiB (0%)
Language : Hungarian
Default : No
Forced : No

Text #14
ID : 16
Format : UTF-8
Codec ID : S_TEXT/UTF8
Codec ID/Info : UTF-8 Plain Text
Duration : 2 h 11 min
Bit rate : 44 b/s
Frame rate : 0.210 FPS
Count of elements : 1656
Stream size : 42.4 KiB (0%)
Language : Indonesian
Default : No
Forced : No

Text #15
ID : 17
Format : UTF-8
Codec ID : S_TEXT/UTF8
Codec ID/Info : UTF-8 Plain Text
Duration : 2 h 11 min
Bit rate : 47 b/s
Frame rate : 0.192 FPS
Count of elements : 1512
Stream size : 46.1 KiB (0%)
Language : Italian
Default : No
Forced : No

Text #16
ID : 18
Format : UTF-8
Codec ID : S_TEXT/UTF8
Codec ID/Info : UTF-8 Plain Text
Duration : 2 h 11 min
Bit rate : 47 b/s
Frame rate : 0.206 FPS
Count of elements : 1620
Stream size : 45.7 KiB (0%)
Language : Japanese
Default : No
Forced : No

Text #17
ID : 19
Format : UTF-8
Codec ID : S_TEXT/UTF8
Codec ID/Info : UTF-8 Plain Text
Duration : 2 h 17 min
Bit rate : 60 b/s
Frame rate : 0.204 FPS
Count of elements : 1677
Stream size : 61.2 KiB (0%)
Language : Korean
Default : No
Forced : No

Text #18
ID : 20
Format : UTF-8
Codec ID : S_TEXT/UTF8
Codec ID/Info : UTF-8 Plain Text
Duration : 2 h 11 min
Bit rate : 45 b/s
Frame rate : 0.209 FPS
Count of elements : 1645
Stream size : 43.8 KiB (0%)
Language : Malay
Default : No
Forced : No

Text #19
ID : 21
Format : UTF-8
Codec ID : S_TEXT/UTF8
Codec ID/Info : UTF-8 Plain Text
Duration : 2 h 11 min
Bit rate : 45 b/s
Frame rate : 0.179 FPS
Count of elements : 1411
Stream size : 43.4 KiB (0%)
Language : Norwegian Bokmal
Default : No
Forced : No

Text #20
ID : 22
Format : UTF-8
Codec ID : S_TEXT/UTF8
Codec ID/Info : UTF-8 Plain Text
Duration : 2 h 11 min
Bit rate : 45 b/s
Frame rate : 0.190 FPS
Count of elements : 1493
Stream size : 43.9 KiB (0%)
Language : Dutch
Default : No
Forced : No

Text #21
ID : 23
Format : UTF-8
Codec ID : S_TEXT/UTF8
Codec ID/Info : UTF-8 Plain Text
Duration : 2 h 11 min
Bit rate : 42 b/s
Frame rate : 0.195 FPS
Count of elements : 1536
Stream size : 40.9 KiB (0%)
Language : Polish
Default : No
Forced : No

Text #22
ID : 24
Format : UTF-8
Codec ID : S_TEXT/UTF8
Codec ID/Info : UTF-8 Plain Text
Duration : 2 h 11 min
Bit rate : 45 b/s
Frame rate : 0.195 FPS
Count of elements : 1539
Stream size : 43.8 KiB (0%)
Language : Portuguese
Default : No
Forced : No

Text #23
ID : 25
Format : UTF-8
Codec ID : S_TEXT/UTF8
Codec ID/Info : UTF-8 Plain Text
Duration : 2 h 11 min
Bit rate : 49 b/s
Frame rate : 0.206 FPS
Count of elements : 1619
Stream size : 47.2 KiB (0%)
Title : Brazilian
Language : Portuguese
Default : No
Forced : No

Text #24
ID : 26
Format : UTF-8
Codec ID : S_TEXT/UTF8
Codec ID/Info : UTF-8 Plain Text
Duration : 2 h 11 min
Bit rate : 55 b/s
Frame rate : 0.195 FPS
Count of elements : 1539
Stream size : 53.0 KiB (0%)
Language : Romanian
Default : No
Forced : No

Text #25
ID : 27
Format : UTF-8
Codec ID : S_TEXT/UTF8
Codec ID/Info : UTF-8 Plain Text
Duration : 2 h 11 min
Bit rate : 76 b/s
Frame rate : 0.209 FPS
Count of elements : 1650
Stream size : 73.5 KiB (0%)
Language : Russian
Default : No
Forced : No

Text #26
ID : 28
Format : UTF-8
Codec ID : S_TEXT/UTF8
Codec ID/Info : UTF-8 Plain Text
Duration : 2 h 11 min
Bit rate : 43 b/s
Frame rate : 0.202 FPS
Count of elements : 1595
Stream size : 41.7 KiB (0%)
Language : Swedish
Default : No
Forced : No

Text #27
ID : 29
Format : UTF-8
Codec ID : S_TEXT/UTF8
Codec ID/Info : UTF-8 Plain Text
Duration : 2 h 11 min
Bit rate : 124 b/s
Frame rate : 0.210 FPS
Count of elements : 1657
Stream size : 119 KiB (0%)
Language : Thai
Default : No
Forced : No

Text #28
ID : 30
Format : UTF-8
Codec ID : S_TEXT/UTF8
Codec ID/Info : UTF-8 Plain Text
Duration : 2 h 11 min
Bit rate : 49 b/s
Frame rate : 0.200 FPS
Count of elements : 1578
Stream size : 47.3 KiB (0%)
Language : Turkish
Default : No
Forced : No

Text #29
ID : 31
Format : UTF-8
Codec ID : S_TEXT/UTF8
Codec ID/Info : UTF-8 Plain Text
Duration : 2 h 11 min
Bit rate : 67 b/s
Frame rate : 0.190 FPS
Count of elements : 1500
Stream size : 65.3 KiB (0%)
Language : Vietnamese
Default : No
Forced : No

Text #30
ID : 32
Format : UTF-8
Codec ID : S_TEXT/UTF8
Codec ID/Info : UTF-8 Plain Text
Duration : 2 h 11 min
Bit rate : 50 b/s
Frame rate : 0.208 FPS
Count of elements : 1636
Stream size : 48.7 KiB (0%)
Title : 中文(简体)
Language : 中文
Default : No
Forced : No

Text #31
ID : 33
Format : UTF-8
Codec ID : S_TEXT/UTF8
Codec ID/Info : UTF-8 Plain Text
Duration : 2 h 11 min
Bit rate : 49 b/s
Frame rate : 0.213 FPS
Count of elements : 1677
Stream size : 47.9 KiB (0%)
Title : 中文(繁体)
Language : 中文
Default : No
Forced : No


资源速度为零或资源敏感被和谐时,推荐使用qBittorrent等下载软件,有条件的推荐115更好的下载软件!

下载地址:


游客,如果您要查看本帖隐藏内容请回复

游客,如果您要查看本帖隐藏内容请回复

游客,如果您要查看本帖隐藏内容请回复


相关其他4K高清版本链接:

《神弃之地/恶魔每时每刻》4K高清下载/大小10.74GB
神弃之地 / The Devil All the Time (2020) 4K高清版下载






上一篇:辣手保姆2:女王蜂 [简繁中字] (2019) 4K高清版本下载
下一篇:发掘 [简繁中字] / The Dig (2021) 4K高清版本下载
回复

使用道具 举报

67

主题

1559

帖子

4495

积分

4K家园VIP

Rank: 9Rank: 9Rank: 9

积分
4495
发表于 2022-7-17 21:28:51 | 显示全部楼层
啥玩应呀
回复 支持 反对

使用道具 举报

2

主题

1357

帖子

4087

积分

4K家园VIP

Rank: 9Rank: 9Rank: 9

积分
4087
发表于 2022-7-18 10:03:27 | 显示全部楼层
楼猪辛苦了,支持一下分享好资源
回复 支持 反对

使用道具 举报

2

主题

1339

帖子

3831

积分

4K家园VIP

Rank: 9Rank: 9Rank: 9

积分
3831
发表于 2022-7-23 00:13:05 | 显示全部楼层
顶起顶起顶起
回复 支持 反对

使用道具 举报

1

主题

1354

帖子

4080

积分

4K家园VIP

Rank: 9Rank: 9Rank: 9

积分
4080
发表于 2022-7-28 10:05:08 | 显示全部楼层
感谢楼主发帖,前排顶起
回复 支持 反对

使用道具 举报

51

主题

1517

帖子

4371

积分

4K家园VIP

Rank: 9Rank: 9Rank: 9

积分
4371
发表于 2022-7-28 10:57:32 来自手机 | 显示全部楼层
楼猪V5啊
回复 支持 反对

使用道具 举报

0

主题

2

帖子

13

积分

新手上路

Rank: 1

积分
13
发表于 2022-7-29 16:29:23 | 显示全部楼层
不会回复之后又要买VIP,用金币才能下载吧?
回复 支持 反对

使用道具 举报

您需要登录后才可以回帖 登录 | 立即注册

本版积分规则

精彩图文
Archiver|手机版|TAG|Sitemap|新帖|专题|联系我们:邮箱: 4kjia.com@gmail.com   

4k家园   ©2019