[4K电影] 亲吻亭3 [简繁中字] /The Kissing Booth 3 (2021) 4K高清版本下载

[复制链接]

2163

主题

2306

帖子

1万

积分

超级版主

Rank: 8Rank: 8

积分
16861
 楼主| 发表于 2022-7-17 22:33:57 | 显示全部楼层 |阅读模式

QQ图片20220717222310_副本.png

◎译  名 亲吻亭3 / 恋与接吻亭3 / 亲亲小站3
◎片  名 The Kissing Booth 3
◎年  代 2021
◎产  地 英国 / 美国
◎类  别 喜剧 / 爱情
◎语  言 英语
◎上映日期 2021-08-11(美国)
◎IMDb评分 4.7/10 from 16171 users
◎IMDb链接 https://www.imdb.com/title/tt12783454/
◎豆瓣评分 5.2/10 from 1068 users
◎豆瓣链接 https://movie.douban.com/subject/35158170/
◎片  长 111分钟
◎导  演 文斯·马塞洛 Vince Marcello
◎编  剧 杰伊·阿诺德 Jay S Arnold  / 文斯·马塞洛 Vince Marcello
◎演  员 乔伊·金 Joey King
       乔尔·考特尼 Joel Courtney
       雅各布·艾洛蒂 Jacob Elordi
       泰勒·扎克哈尔·佩雷斯 Taylor Zakhar Perez
       梅根·杨 Meganne Young
       莫利·林沃德 Molly Ringwald
       麦茜·理查森·塞勒斯 Maisie Richardson-Sellers
       弗朗西斯·肖托·道格拉斯 Frances Sholto-Douglas  
       卡米拉·沃尔夫森 Camilla Wolfson
       比安卡·博斯 Bianca Bosch
       埃文·亨斯特 Evan Hengst  
       卡森·怀特 Carson White


◎简  介


  Netflix就宣布将出《亲吻亭3》,于明年上线,也发布前瞻预告,腻歪的小情侣并且透露该片已经跟《亲吻亭2》一起拍完了,现在后期制作中,所以不会因新冠疫情而无法拍摄。

Video
ID : 1
Format : HEVC
Format/Info : High Efficiency Video Coding
Format profile : Main 10@L5@Main
HDR format : SMPTE ST 2086, HDR10 compatible
Codec ID : V_MPEGH/ISO/HEVC
Duration : 1 h 51 min
Bit rate : 15.7 Mb/s
Width : 3 840 pixels
Height : 2 160 pixels
Display aspect ratio : 16:9
Frame rate mode : Constant
Frame rate : 24.000 FPS
Color space : YUV
Chroma subsampling : 4:2:0 (Type 2)
Bit depth : 10 bits
Bits/(Pixel*Frame) : 0.079
Stream size : 12.2 GiB (96%)
Default : Yes
Forced : No
Color range : Limited
Color primaries : BT.2020
Transfer characteristics : PQ
Matrix coefficients : BT.2020 non-constant
Mastering display color primaries : Display P3
Mastering display luminance : min: 0.0001 cd/m2, max: 1000 cd/m2
Maximum Content Light Level : 10000 cd/m2
Maximum Frame-Average Light Level : 3208 cd/m2

Audio
ID : 2
Format : E-AC-3
Format/Info : Enhanced AC-3
Commercial name : Dolby Digital Plus
Codec ID : A_EAC3
Duration : 1 h 53 min
Bit rate mode : Constant
Bit rate : 640 kb/s
Channel(s) : 6 channels
Channel layout : L R C LFE Ls Rs
Sampling rate : 48.0 kHz
Frame rate : 31.250 FPS (1536 SPF)
Compression mode : Lossy
Stream size : 521 MiB (4%)
Language : English
Service kind : Complete Main
Default : Yes
Forced : No

Text #1
ID : 3
Format : UTF-8
Codec ID : S_TEXT/UTF8
Codec ID/Info : UTF-8 Plain Text
Duration : 1 h 50 min
Bit rate : 84 b/s
Frame rate : 0.313 FPS
Count of elements : 2068
Stream size : 68.3 KiB (0%)
Title : [CC]
Language : English
Default : No
Forced : No

Text #2
ID : 4
Format : UTF-8
Codec ID : S_TEXT/UTF8
Codec ID/Info : UTF-8 Plain Text
Duration : 1 h 51 min
Bit rate : 105 b/s
Frame rate : 0.252 FPS
Count of elements : 1681
Stream size : 86.2 KiB (0%)
Language : Arabic
Default : No
Forced : No

Text #3
ID : 5
Format : UTF-8
Codec ID : S_TEXT/UTF8
Codec ID/Info : UTF-8 Plain Text
Duration : 1 h 51 min
Bit rate : 56 b/s
Frame rate : 0.248 FPS
Count of elements : 1653
Stream size : 46.2 KiB (0%)
Language : Czech
Default : No
Forced : No

Text #4
ID : 6
Format : UTF-8
Codec ID : S_TEXT/UTF8
Codec ID/Info : UTF-8 Plain Text
Duration : 1 h 51 min
Bit rate : 57 b/s
Frame rate : 0.239 FPS
Count of elements : 1590
Stream size : 46.4 KiB (0%)
Language : Danish
Default : No
Forced : No

Text #5
ID : 7
Format : UTF-8
Codec ID : S_TEXT/UTF8
Codec ID/Info : UTF-8 Plain Text
Duration : 1 h 51 min
Bit rate : 61 b/s
Frame rate : 0.243 FPS
Count of elements : 1620
Stream size : 50.1 KiB (0%)
Language : German
Default : No
Forced : No

Text #6
ID : 8
Format : UTF-8
Codec ID : S_TEXT/UTF8
Codec ID/Info : UTF-8 Plain Text
Duration : 1 h 51 min
Bit rate : 93 b/s
Frame rate : 0.247 FPS
Count of elements : 1644
Stream size : 76.2 KiB (0%)
Language : Greek
Default : No
Forced : No

Text #7
ID : 9
Format : UTF-8
Codec ID : S_TEXT/UTF8
Codec ID/Info : UTF-8 Plain Text
Duration : 1 h 51 min
Bit rate : 59 b/s
Frame rate : 0.237 FPS
Count of elements : 1582
Stream size : 48.6 KiB (0%)
Language : Spanish
Default : No
Forced : No

Text #8
ID : 10
Format : UTF-8
Codec ID : S_TEXT/UTF8
Codec ID/Info : UTF-8 Plain Text
Duration : 1 h 51 min
Bit rate : 55 b/s
Frame rate : 0.248 FPS
Count of elements : 1654
Stream size : 44.8 KiB (0%)
Title : European
Language : Spanish
Default : No
Forced : No

Text #9
ID : 11
Format : UTF-8
Codec ID : S_TEXT/UTF8
Codec ID/Info : UTF-8 Plain Text
Duration : 1 h 51 min
Bit rate : 54 b/s
Frame rate : 0.171 FPS
Count of elements : 1140
Stream size : 44.4 KiB (0%)
Language : Finnish
Default : No
Forced : No

Text #10
ID : 12
Format : UTF-8
Codec ID : S_TEXT/UTF8
Codec ID/Info : UTF-8 Plain Text
Duration : 1 h 51 min
Bit rate : 51 b/s
Frame rate : 0.219 FPS
Count of elements : 1463
Stream size : 41.7 KiB (0%)
Language : French
Default : No
Forced : No

Text #11
ID : 13
Format : UTF-8
Codec ID : S_TEXT/UTF8
Codec ID/Info : UTF-8 Plain Text
Duration : 1 h 51 min
Bit rate : 94 b/s
Frame rate : 0.240 FPS
Count of elements : 1600
Stream size : 77.2 KiB (0%)
Language : Hebrew
Default : No
Forced : No

Text #12
ID : 14
Format : UTF-8
Codec ID : S_TEXT/UTF8
Codec ID/Info : UTF-8 Plain Text
Duration : 1 h 51 min
Bit rate : 51 b/s
Frame rate : 0.244 FPS
Count of elements : 1626
Stream size : 41.8 KiB (0%)
Language : Croatian
Default : No
Forced : No

Text #13
ID : 15
Format : UTF-8
Codec ID : S_TEXT/UTF8
Codec ID/Info : UTF-8 Plain Text
Duration : 1 h 51 min
Bit rate : 58 b/s
Frame rate : 0.232 FPS
Count of elements : 1549
Stream size : 47.8 KiB (0%)
Language : Hungarian
Default : No
Forced : No

Text #14
ID : 16
Format : UTF-8
Codec ID : S_TEXT/UTF8
Codec ID/Info : UTF-8 Plain Text
Duration : 1 h 51 min
Bit rate : 54 b/s
Frame rate : 0.250 FPS
Count of elements : 1668
Stream size : 44.0 KiB (0%)
Language : Indonesian
Default : No
Forced : No

Text #15
ID : 17
Format : UTF-8
Codec ID : S_TEXT/UTF8
Codec ID/Info : UTF-8 Plain Text
Duration : 1 h 51 min
Bit rate : 59 b/s
Frame rate : 0.241 FPS
Count of elements : 1609
Stream size : 48.5 KiB (0%)
Language : Italian
Default : No
Forced : No

Text #16
ID : 18
Format : UTF-8
Codec ID : S_TEXT/UTF8
Codec ID/Info : UTF-8 Plain Text
Duration : 1 h 51 min
Bit rate : 59 b/s
Frame rate : 0.252 FPS
Count of elements : 1678
Stream size : 48.6 KiB (0%)
Language : Japanese
Default : No
Forced : No

Text #17
ID : 19
Format : UTF-8
Codec ID : S_TEXT/UTF8
Codec ID/Info : UTF-8 Plain Text
Duration : 1 h 51 min
Bit rate : 71 b/s
Frame rate : 0.259 FPS
Count of elements : 1726
Stream size : 58.2 KiB (0%)
Language : Korean
Default : No
Forced : No

Text #18
ID : 20
Format : UTF-8
Codec ID : S_TEXT/UTF8
Codec ID/Info : UTF-8 Plain Text
Duration : 1 h 51 min
Bit rate : 56 b/s
Frame rate : 0.243 FPS
Count of elements : 1617
Stream size : 46.1 KiB (0%)
Language : Malay
Default : No
Forced : No

Text #19
ID : 21
Format : UTF-8
Codec ID : S_TEXT/UTF8
Codec ID/Info : UTF-8 Plain Text
Duration : 1 h 51 min
Bit rate : 55 b/s
Frame rate : 0.206 FPS
Count of elements : 1371
Stream size : 44.8 KiB (0%)
Language : Norwegian Bokmal
Default : No
Forced : No

Text #20
ID : 22
Format : UTF-8
Codec ID : S_TEXT/UTF8
Codec ID/Info : UTF-8 Plain Text
Duration : 1 h 50 min
Bit rate : 55 b/s
Frame rate : 0.210 FPS
Count of elements : 1389
Stream size : 44.8 KiB (0%)
Language : Dutch
Default : No
Forced : No

Text #21
ID : 23
Format : UTF-8
Codec ID : S_TEXT/UTF8
Codec ID/Info : UTF-8 Plain Text
Duration : 1 h 51 min
Bit rate : 51 b/s
Frame rate : 0.246 FPS
Count of elements : 1638
Stream size : 42.3 KiB (0%)
Language : Polish
Default : No
Forced : No

Text #22
ID : 24
Format : UTF-8
Codec ID : S_TEXT/UTF8
Codec ID/Info : UTF-8 Plain Text
Duration : 1 h 50 min
Bit rate : 58 b/s
Frame rate : 0.250 FPS
Count of elements : 1651
Stream size : 47.3 KiB (0%)
Language : Portuguese
Default : No
Forced : No

Text #23
ID : 25
Format : UTF-8
Codec ID : S_TEXT/UTF8
Codec ID/Info : UTF-8 Plain Text
Duration : 1 h 51 min
Bit rate : 58 b/s
Frame rate : 0.248 FPS
Count of elements : 1654
Stream size : 47.4 KiB (0%)
Title : Brazilian
Language : Portuguese
Default : No
Forced : No

Text #24
ID : 26
Format : UTF-8
Codec ID : S_TEXT/UTF8
Codec ID/Info : UTF-8 Plain Text
Duration : 1 h 51 min
Bit rate : 65 b/s
Frame rate : 0.250 FPS
Count of elements : 1669
Stream size : 53.1 KiB (0%)
Language : Romanian
Default : No
Forced : No

Text #25
ID : 27
Format : UTF-8
Codec ID : S_TEXT/UTF8
Codec ID/Info : UTF-8 Plain Text
Duration : 1 h 51 min
Bit rate : 91 b/s
Frame rate : 0.252 FPS
Count of elements : 1680
Stream size : 74.1 KiB (0%)
Language : Russian
Default : No
Forced : No

Text #26
ID : 28
Format : UTF-8
Codec ID : S_TEXT/UTF8
Codec ID/Info : UTF-8 Plain Text
Duration : 1 h 51 min
Bit rate : 56 b/s
Frame rate : 0.208 FPS
Count of elements : 1389
Stream size : 46.2 KiB (0%)
Language : Swedish
Default : No
Forced : No

Text #27
ID : 29
Format : UTF-8
Codec ID : S_TEXT/UTF8
Codec ID/Info : UTF-8 Plain Text
Duration : 1 h 51 min
Bit rate : 158 b/s
Frame rate : 0.254 FPS
Count of elements : 1693
Stream size : 129 KiB (0%)
Language : Thai
Default : No
Forced : No

Text #28
ID : 30
Format : UTF-8
Codec ID : S_TEXT/UTF8
Codec ID/Info : UTF-8 Plain Text
Duration : 1 h 51 min
Bit rate : 57 b/s
Frame rate : 0.227 FPS
Count of elements : 1514
Stream size : 47.1 KiB (0%)
Language : Turkish
Default : No
Forced : No

Text #29
ID : 31
Format : UTF-8
Codec ID : S_TEXT/UTF8
Codec ID/Info : UTF-8 Plain Text
Duration : 1 h 51 min
Bit rate : 92 b/s
Frame rate : 0.253 FPS
Count of elements : 1689
Stream size : 74.9 KiB (0%)
Language : Ukrainian
Default : No
Forced : No

Text #30
ID : 32
Format : UTF-8
Codec ID : S_TEXT/UTF8
Codec ID/Info : UTF-8 Plain Text
Duration : 1 h 51 min
Bit rate : 82 b/s
Frame rate : 0.240 FPS
Count of elements : 1597
Stream size : 67.2 KiB (0%)
Language : Vietnamese
Default : No
Forced : No

Text #31
ID : 33
Format : UTF-8
Codec ID : S_TEXT/UTF8
Codec ID/Info : UTF-8 Plain Text
Duration : 1 h 51 min
Bit rate : 63 b/s
Frame rate : 0.254 FPS
Count of elements : 1695
Stream size : 51.7 KiB (0%)
Title : 中文(简体)
Language : 中文
Default : No
Forced : No

Text #32
ID : 34
Format : UTF-8
Codec ID : S_TEXT/UTF8
Codec ID/Info : UTF-8 Plain Text
Duration : 1 h 51 min
Bit rate : 58 b/s
Frame rate : 0.254 FPS
Count of elements : 1693
Stream size : 47.3 KiB (0%)
Title : 中文(繁体)
Language : 中文
Default : No
Forced : No


资源速度为零或资源敏感被和谐时,推荐使用qBittorrent等下载软件,有条件的推荐115更好的下载软件!

下载地址:


游客,如果您要查看本帖隐藏内容请回复


以下为以往链接
游客,如果您要查看本帖隐藏内容请回复





上一篇:亲吻亭2 [简繁中字] /The Kissing Booth 2 (2020) 4K高清版本下载
下一篇:致所有我曾爱过的男孩 [简繁中字] (2018) 4K高清版本下载
回复

使用道具 举报

39

主题

1534

帖子

4396

积分

4K家园VIP

Rank: 9Rank: 9Rank: 9

积分
4396
发表于 2022-7-17 22:34:01 来自手机 | 显示全部楼层
LZ敢整点更有创意的不?兄弟们等着围观捏~
回复 支持 反对

使用道具 举报

1

主题

1401

帖子

4051

积分

4K家园VIP

Rank: 9Rank: 9Rank: 9

积分
4051
发表于 2022-7-19 02:24:24 来自手机 | 显示全部楼层
看帖要回,回帖才健康,在踩踩,楼主辛苦了!
回复 支持 反对

使用道具 举报

55

主题

1471

帖子

4271

积分

4K家园VIP

Rank: 9Rank: 9Rank: 9

积分
4271
发表于 2022-7-22 07:13:39 | 显示全部楼层
回复 支持 反对

使用道具 举报

1

主题

1364

帖子

4120

积分

4K家园VIP

Rank: 9Rank: 9Rank: 9

积分
4120
发表于 2022-7-26 15:30:09 | 显示全部楼层
不错 支持一个了
回复 支持 反对

使用道具 举报

2

主题

1627

帖子

4481

积分

4K家园VIP

Rank: 9Rank: 9Rank: 9

积分
4481
发表于 2022-7-31 11:57:49 | 显示全部楼层
介是神马?!!
回复 支持 反对

使用道具 举报

您需要登录后才可以回帖 登录 | 立即注册

本版积分规则

精彩图文
Archiver|手机版|TAG|Sitemap|新帖|专题|联系我们:邮箱: 4kjia.com@gmail.com   

4k家园   ©2019