[4K电影] 致所有我曾爱过的男孩 [简繁中字] (2018) 4K高清版本下载

[复制链接]

2118

主题

2259

帖子

1万

积分

超级版主

Rank: 8Rank: 8

积分
16577
 楼主| 发表于 2022-7-17 22:40:22 | 显示全部楼层 |阅读模式
本帖最后由 最爱4K哟 于 2022-7-17 22:54 编辑

QQ图片20220717222430_副本.png

◎译  名 致所有我曾爱过的男孩/爱的过去进行式(台)
◎片  名 To All the Boys I've Loved Before
◎年  代 2018
◎产  地 美国
◎类  别 爱情
◎语  言 英语
◎上映日期 2018-08-17(美国)
◎IMDb评分 6.3/10 from 25015 users
◎IMDb链接 https://www.imdb.com/title/tt3846674/
◎豆瓣评分 6.9/10 from 5816 users
◎豆瓣链接 https://movie.douban.com/subject/27064658/
◎导  演 苏珊·约翰逊 Susan Johnson
◎编  剧 索菲娅·阿尔瓦雷斯 Sofia Alvarez / 珍妮·汉 Jenny Han
◎主  演 拉娜·康多 Lana Condor
       诺亚·琴蒂内奥 Noah Centineo
       伊瑟尔·布罗萨德 Israel Broussard
       贾娜尔·帕里希 Janel Parrish
       安娜·卡思卡特 Anna Cathcart
       安德鲁·巴切勒 Andrew Bachelor
       特雷佐·马霍洛 Trezzo Mahoro
       玛德琳娜·亚瑟 Madeleine Arthur
       埃米利娅·巴拉纳茨 Emilija Baranac
       约翰·考伯特 John Corbett
       凯尔西·马韦马 Kelcey Mawema
       朱莉娅·本森 Julia Benson
       乔伊·帕切科 Joey Pacheco
       乔丹·伯切特 Jordan Burtchett
       琼·B·王尔德 June B. Wilde
       伊莎贝尔·比奇 Isabelle Beech
       亨特·狄龙 Hunter Dillon
       克里斯蒂安·迈克尔·库珀 Christian Michael Cooper
       里斯·弗菜明 Rhys Fleming
       帕维尔·皮多克 Pavel Piddocke
       杰布·比奇 Jeb Beach
       Cameron Crosby Cameron Crosby
       耶尔·雅曼 Yael Yurman


◎简  介


  劳拉(拉娜·孔多尔 Lana Condor 饰)是一个16岁的女孩,无论是外貌还是性格,劳拉都只能算是最普通的那一挂,把她扔在人堆里,下一秒钟你就绝对再也无法注意到她。然而,劳拉的心思细腻情感丰富,让她特别容易对男孩产生好感,但她总是将这份爱慕隐藏在心底,只是通过写信的方式来抒情,一段时间下来,劳拉积攒了不少的情书,她将这些情书藏了起来,并决定将它们当做自己永远的秘密。
  可让劳拉没有想到的是,自己的这些私房信竟然在某一天被统统公之于众。信件带来的巨大反响很快就令她的生活发生了天翻地覆的改变,面对各方的声音,无论是嘲讽和还是善意的,勇敢的劳拉都以一颗平常心面对。

Video
ID : 1
Format : HEVC
Format/Info : High Efficiency Video Coding
Format profile : Main 10@L5@Main
HDR format : SMPTE ST 2086, HDR10 compatible
Codec ID : V_MPEGH/ISO/HEVC
Duration : 1 h 54 min
Bit rate : 13.6 Mb/s
Width : 3 840 pixels
Height : 2 160 pixels
Display aspect ratio : 16:9
Frame rate mode : Constant
Frame rate : 23.976 (24000/1001) FPS
Color space : YUV
Chroma subsampling : 4:2:0 (Type 2)
Bit depth : 10 bits
Bits/(Pixel*Frame) : 0.069
Stream size : 10.9 GiB (95%)
Default : Yes
Forced : No
Color range : Limited
Color primaries : BT.2020
Transfer characteristics : PQ
Matrix coefficients : BT.2020 non-constant
Mastering display color primaries : Display P3
Mastering display luminance : min: 0.0001 cd/m2, max: 1000 cd/m2
Maximum Content Light Level : 1019 cd/m2
Maximum Frame-Average Light Level : 473 cd/m2

Audio
ID : 2
Format : E-AC-3 JOC
Format/Info : Enhanced AC-3 with Joint Object Coding
Commercial name : Dolby Digital Plus with Dolby Atmos
Codec ID : A_EAC3
Duration : 1 h 55 min
Bit rate mode : Constant
Bit rate : 768 kb/s
Channel(s) : 6 channels
Channel layout : L R C LFE Ls Rs
Sampling rate : 48.0 kHz
Frame rate : 31.250 FPS (1536 SPF)
Compression mode : Lossy
Stream size : 637 MiB (5%)
Language : English
Service kind : Complete Main
Default : Yes
Forced : No
Complexity index : 16
Number of dynamic objects : 15
Bed channel count : 1 channel
Bed channel configuration : LFE

Text #1
ID : 3
Format : UTF-8
Codec ID : S_TEXT/UTF8
Codec ID/Info : UTF-8 Plain Text
Duration : 1 h 54 min
Bit rate : 76 b/s
Frame rate : 0.264 FPS
Count of elements : 1810
Stream size : 63.8 KiB (0%)
Title : [CC]
Language : English
Default : No
Forced : No

Text #2
ID : 4
Format : UTF-8
Codec ID : S_TEXT/UTF8
Codec ID/Info : UTF-8 Plain Text
Duration : 1 h 48 min
Bit rate : 99 b/s
Frame rate : 0.220 FPS
Count of elements : 1437
Stream size : 79.2 KiB (0%)
Language : Arabic
Default : No
Forced : No

Text #3
ID : 5
Format : UTF-8
Codec ID : S_TEXT/UTF8
Codec ID/Info : UTF-8 Plain Text
Duration : 1 h 53 min
Bit rate : 53 b/s
Frame rate : 0.199 FPS
Count of elements : 1361
Stream size : 44.6 KiB (0%)
Language : Czech
Default : No
Forced : No

Text #4
ID : 6
Format : UTF-8
Codec ID : S_TEXT/UTF8
Codec ID/Info : UTF-8 Plain Text
Duration : 1 h 48 min
Bit rate : 53 b/s
Frame rate : 0.195 FPS
Count of elements : 1271
Stream size : 42.9 KiB (0%)
Language : Danish
Default : No
Forced : No

Text #5
ID : 7
Format : UTF-8
Codec ID : S_TEXT/UTF8
Codec ID/Info : UTF-8 Plain Text
Duration : 1 h 53 min
Bit rate : 52 b/s
Frame rate : 0.194 FPS
Count of elements : 1329
Stream size : 43.6 KiB (0%)
Language : German
Default : No
Forced : No

Text #6
ID : 8
Format : UTF-8
Codec ID : S_TEXT/UTF8
Codec ID/Info : UTF-8 Plain Text
Duration : 1 h 53 min
Bit rate : 87 b/s
Frame rate : 0.204 FPS
Count of elements : 1395
Stream size : 72.7 KiB (0%)
Language : Greek
Default : No
Forced : No

Text #7
ID : 9
Format : UTF-8
Codec ID : S_TEXT/UTF8
Codec ID/Info : UTF-8 Plain Text
Duration : 1 h 53 min
Bit rate : 49 b/s
Frame rate : 0.191 FPS
Count of elements : 1304
Stream size : 41.5 KiB (0%)
Language : Spanish
Default : No
Forced : No

Text #8
ID : 10
Format : UTF-8
Codec ID : S_TEXT/UTF8
Codec ID/Info : UTF-8 Plain Text
Duration : 1 h 53 min
Bit rate : 51 b/s
Frame rate : 0.204 FPS
Count of elements : 1393
Stream size : 42.8 KiB (0%)
Title : European
Language : Spanish
Default : No
Forced : No

Text #9
ID : 11
Format : UTF-8
Codec ID : S_TEXT/UTF8
Codec ID/Info : UTF-8 Plain Text
Duration : 1 h 48 min
Bit rate : 48 b/s
Frame rate : 0.194 FPS
Count of elements : 1266
Stream size : 38.2 KiB (0%)
Language : Finnish
Default : No
Forced : No

Text #10
ID : 12
Format : UTF-8
Codec ID : S_TEXT/UTF8
Codec ID/Info : UTF-8 Plain Text
Duration : 1 h 54 min
Bit rate : 49 b/s
Frame rate : 0.192 FPS
Count of elements : 1313
Stream size : 41.6 KiB (0%)
Language : French
Default : No
Forced : No

Text #11
ID : 13
Format : UTF-8
Codec ID : S_TEXT/UTF8
Codec ID/Info : UTF-8 Plain Text
Duration : 1 h 48 min
Bit rate : 94 b/s
Frame rate : 0.195 FPS
Count of elements : 1270
Stream size : 75.2 KiB (0%)
Language : Hebrew
Default : No
Forced : No

Text #12
ID : 14
Format : UTF-8
Codec ID : S_TEXT/UTF8
Codec ID/Info : UTF-8 Plain Text
Duration : 1 h 53 min
Bit rate : 47 b/s
Frame rate : 0.194 FPS
Count of elements : 1329
Stream size : 39.4 KiB (0%)
Language : Croatian
Default : No
Forced : No

Text #13
ID : 15
Format : UTF-8
Codec ID : S_TEXT/UTF8
Codec ID/Info : UTF-8 Plain Text
Duration : 1 h 45 min
Bit rate : 54 b/s
Frame rate : 0.210 FPS
Count of elements : 1328
Stream size : 42.4 KiB (0%)
Language : Hungarian
Default : No
Forced : No

Text #14
ID : 16
Format : UTF-8
Codec ID : S_TEXT/UTF8
Codec ID/Info : UTF-8 Plain Text
Duration : 1 h 54 min
Bit rate : 53 b/s
Frame rate : 0.192 FPS
Count of elements : 1315
Stream size : 44.7 KiB (0%)
Language : Indonesian
Default : No
Forced : No

Text #15
ID : 17
Format : UTF-8
Codec ID : S_TEXT/UTF8
Codec ID/Info : UTF-8 Plain Text
Duration : 1 h 48 min
Bit rate : 51 b/s
Frame rate : 0.205 FPS
Count of elements : 1337
Stream size : 41.3 KiB (0%)
Language : Italian
Default : No
Forced : No

Text #16
ID : 18
Format : UTF-8
Codec ID : S_TEXT/UTF8
Codec ID/Info : UTF-8 Plain Text
Duration : 1 h 54 min
Bit rate : 54 b/s
Frame rate : 0.212 FPS
Count of elements : 1452
Stream size : 45.4 KiB (0%)
Language : Japanese
Default : No
Forced : No

Text #17
ID : 19
Format : UTF-8
Codec ID : S_TEXT/UTF8
Codec ID/Info : UTF-8 Plain Text
Duration : 1 h 53 min
Bit rate : 70 b/s
Frame rate : 0.209 FPS
Count of elements : 1428
Stream size : 58.8 KiB (0%)
Language : Korean
Default : No
Forced : No

Text #18
ID : 20
Format : UTF-8
Codec ID : S_TEXT/UTF8
Codec ID/Info : UTF-8 Plain Text
Duration : 1 h 43 min
Bit rate : 57 b/s
Frame rate : 0.218 FPS
Count of elements : 1351
Stream size : 43.9 KiB (0%)
Language : Malay
Default : No
Forced : No

Text #19
ID : 21
Format : UTF-8
Codec ID : S_TEXT/UTF8
Codec ID/Info : UTF-8 Plain Text
Duration : 1 h 53 min
Bit rate : 49 b/s
Frame rate : 0.177 FPS
Count of elements : 1206
Stream size : 41.3 KiB (0%)
Language : Norwegian Bokmal
Default : No
Forced : No

Text #20
ID : 22
Format : UTF-8
Codec ID : S_TEXT/UTF8
Codec ID/Info : UTF-8 Plain Text
Duration : 1 h 48 min
Bit rate : 49 b/s
Frame rate : 0.184 FPS
Count of elements : 1201
Stream size : 39.3 KiB (0%)
Language : Dutch
Default : No
Forced : No

Text #21
ID : 23
Format : UTF-8
Codec ID : S_TEXT/UTF8
Codec ID/Info : UTF-8 Plain Text
Duration : 1 h 53 min
Bit rate : 48 b/s
Frame rate : 0.198 FPS
Count of elements : 1354
Stream size : 40.3 KiB (0%)
Language : Polish
Default : No
Forced : No

Text #22
ID : 24
Format : UTF-8
Codec ID : S_TEXT/UTF8
Codec ID/Info : UTF-8 Plain Text
Duration : 1 h 53 min
Bit rate : 50 b/s
Frame rate : 0.194 FPS
Count of elements : 1326
Stream size : 42.3 KiB (0%)
Language : Portuguese
Default : No
Forced : No

Text #23
ID : 25
Format : UTF-8
Codec ID : S_TEXT/UTF8
Codec ID/Info : UTF-8 Plain Text
Duration : 1 h 48 min
Bit rate : 53 b/s
Frame rate : 0.210 FPS
Count of elements : 1366
Stream size : 42.2 KiB (0%)
Title : Brazilian
Language : Portuguese
Default : No
Forced : No

Text #24
ID : 26
Format : UTF-8
Codec ID : S_TEXT/UTF8
Codec ID/Info : UTF-8 Plain Text
Duration : 1 h 53 min
Bit rate : 57 b/s
Frame rate : 0.191 FPS
Count of elements : 1308
Stream size : 48.0 KiB (0%)
Language : Romanian
Default : No
Forced : No

Text #25
ID : 27
Format : UTF-8
Codec ID : S_TEXT/UTF8
Codec ID/Info : UTF-8 Plain Text
Duration : 1 h 53 min
Bit rate : 86 b/s
Frame rate : 0.198 FPS
Count of elements : 1354
Stream size : 71.8 KiB (0%)
Language : Russian
Default : No
Forced : No

Text #26
ID : 28
Format : UTF-8
Codec ID : S_TEXT/UTF8
Codec ID/Info : UTF-8 Plain Text
Duration : 1 h 48 min
Bit rate : 54 b/s
Frame rate : 0.181 FPS
Count of elements : 1182
Stream size : 43.1 KiB (0%)
Language : Swedish
Default : No
Forced : No

Text #27
ID : 29
Format : UTF-8
Codec ID : S_TEXT/UTF8
Codec ID/Info : UTF-8 Plain Text
Duration : 1 h 48 min
Bit rate : 145 b/s
Frame rate : 0.212 FPS
Count of elements : 1381
Stream size : 116 KiB (0%)
Language : Thai
Default : No
Forced : No

Text #28
ID : 30
Format : UTF-8
Codec ID : S_TEXT/UTF8
Codec ID/Info : UTF-8 Plain Text
Duration : 1 h 54 min
Bit rate : 52 b/s
Frame rate : 0.183 FPS
Count of elements : 1251
Stream size : 44.2 KiB (0%)
Language : Turkish
Default : No
Forced : No

Text #29
ID : 31
Format : UTF-8
Codec ID : S_TEXT/UTF8
Codec ID/Info : UTF-8 Plain Text
Duration : 1 h 48 min
Bit rate : 91 b/s
Frame rate : 0.212 FPS
Count of elements : 1377
Stream size : 72.3 KiB (0%)
Language : Ukrainian
Default : No
Forced : No

Text #30
ID : 32
Format : UTF-8
Codec ID : S_TEXT/UTF8
Codec ID/Info : UTF-8 Plain Text
Duration : 1 h 53 min
Bit rate : 71 b/s
Frame rate : 0.191 FPS
Count of elements : 1308
Stream size : 60.0 KiB (0%)
Language : Vietnamese
Default : No
Forced : No

Text #31
ID : 33
Format : UTF-8
Codec ID : S_TEXT/UTF8
Codec ID/Info : UTF-8 Plain Text
Duration : 1 h 48 min
Bit rate : 63 b/s
Frame rate : 0.210 FPS
Count of elements : 1368
Stream size : 50.3 KiB (0%)
Title : 中文(简体)
Language : 中文
Default : No
Forced : No

Text #32
ID : 34
Format : UTF-8
Codec ID : S_TEXT/UTF8
Codec ID/Info : UTF-8 Plain Text
Duration : 1 h 52 min
Bit rate : 60 b/s
Frame rate : 0.222 FPS
Count of elements : 1499
Stream size : 49.5 KiB (0%)
Title : 中文(繁体)
Language : 中文
Default : No
Forced : No

资源速度为零或资源敏感被和谐时,推荐使用qBittorrent等下载软件,有条件的推荐115更好的下载软件!

下载地址:
游客,如果您要查看本帖隐藏内容请回复




上一篇:亲吻亭3 [简繁中字] /The Kissing Booth 3 (2021) 4K高清版本下载
下一篇:致所有我曾爱过的男孩2 [简繁中字] (2021) 4K高清版本下载
回复

使用道具 举报

0

主题

1702

帖子

4658

积分

4K家园VIP

Rank: 9Rank: 9Rank: 9

积分
4658
发表于 2022-7-17 22:40:27 来自手机 | 显示全部楼层
顶起出售广告位
回复 支持 反对

使用道具 举报

46

主题

1508

帖子

4368

积分

4K家园VIP

Rank: 9Rank: 9Rank: 9

积分
4368
发表于 2022-7-21 19:24:32 | 显示全部楼层
4K应该不错,我也下个看看
回复 支持 反对

使用道具 举报

50

主题

1543

帖子

4465

积分

4K家园VIP

Rank: 9Rank: 9Rank: 9

积分
4465
发表于 2022-7-23 11:32:55 | 显示全部楼层
楼主呀,,,您太有才了。。。
回复 支持 反对

使用道具 举报

2

主题

1422

帖子

4288

积分

4K家园VIP

Rank: 9Rank: 9Rank: 9

积分
4288
发表于 2022-7-23 17:49:45 | 显示全部楼层
LZ是天才,坚定完毕
回复 支持 反对

使用道具 举报

58

主题

1568

帖子

4514

积分

4K家园VIP

Rank: 9Rank: 9Rank: 9

积分
4514
发表于 2022-7-23 19:50:20 | 显示全部楼层
还有没有别的资源,多分享些
回复 支持 反对

使用道具 举报

您需要登录后才可以回帖 登录 | 立即注册

本版积分规则

精彩图文
Archiver|手机版|TAG|Sitemap|新帖|专题|联系我们:邮箱: 4kjia.com@gmail.com   

4k家园   ©2019