性爱自修室[简繁中字] (2021)/第一、二、三季全 / 4K高清下载

[复制链接]

188

主题

211

帖子

2061

积分

版主

Rank: 7Rank: 7Rank: 7

积分
2061
 楼主| 发表于 2022-7-19 10:43:47 | 显示全部楼层 |阅读模式
1.jpg
◎译  名 性爱自修室 / 性事学堂 / 性爱自修室(台) / 操场性教育
◎片  名 Sex Education
◎年  代 2019
◎产  地 英国 / 美国
◎类  别 剧情 / 喜剧
◎语  言 英语
◎上映日期 2019-01-11(美国)
◎IMDb链接 http://www.imdb.com/title/tt7767422
◎集  数 8
◎导  演 本·泰勒 Ben Taylor / Kate Herron
◎编  剧 Bisha K. Ali / 索菲·古德哈特 Sophie Goodhart / Laura Hunter / Laura Neal / Laurie Nunn / 弗雷迪·赛伯 Freddy Syborn
◎主  演 Emma Mackey
       吉莲·安德森 Gillian Anderson
       阿萨·巴特菲尔德 Asa Butterfield
       Chaneil Kular
       阿利斯泰·皮垂 Alistair Petrie
       Connor Swindells
       Cerys Watkins
       Kedar Williams-Stirling
       Aimee Lou Wood
       Mimi Keene
       Tanya Reynolds
       Patricia Allison
       Simone Ashley
       Chris Jenks
       Max Boast
       Kadeem Ramsay
       Tish Kumar
       Daniel Adegboyega
       爱德华·布卢梅尔 Edward Bluemel
       费米·依鲁福祖 Femi Elufowoju Jr.
       莉莉·纽马克 Lily Newmark
       Rakhee Thakrar
       麦莉·托马斯 Milly Thomas


◎简  介  

  欧帝斯固然缺乏性经验,他的母亲可是一名性治疗师。他决定将母亲的衣钵发扬光大,於是在就读的摩尔戴高中设立性爱治疗谘询服务,造福无可救药的同学。他们水乳交融,其乐无穷,一起渡过人生最灿烂的时光。






p2580105745_副本.jpg

◎译  名 性爱自修室/性教育
◎片  名 Sex Education
◎年  代 2021
◎产  地 英国
◎类  别 剧情/喜剧/爱情
◎语  言 英语
◎上映日期 2021-09-17(英国)
◎IMDb评分  8.5/10 from 3786 users
◎IMDb链接  https://www.imdb.com/title/tt11761560/
◎豆瓣评分 9.0/10 from 91239 users
◎豆瓣链接 https://movie.douban.com/subject/34966169/
◎集  数 8
◎片  长 60分钟
◎导  演 本·泰勒 Ben Taylor / 鲁尼亚罗·马普福莫 Runyararo Mapfumo
◎编  剧 劳瑞·纳恩 Laurie Nunn / 索菲·古德哈特 Sophie Goodhart / 艾丽斯·西布赖特 Alice Seabright / 塞琳娜·林 Selina Lim / 马万·里兹旺 Mawaan Rizwan / 特米·威尔基 Temi Wilkey
◎主  演 阿萨·巴特菲尔德 Asa Butterfield
       吉莲·安德森 Gillian Anderson
       舒提·盖特瓦 Ncuti Gatwa
       艾玛·麦基 Emma Mackey
       康纳·斯温德尔 Connor Swindells
       凯达·威廉姆斯特灵 Kedar Williams-Stirling
       埃利斯戴尔·皮特里 Alistair Petrie
       米米·基恩 Mimi Keene
       艾米·卢·伍德 Aimee Lou Wood
       西蒙娜·阿什利 Simone Ashley
       塔尼娅·雷诺兹 Tanya Reynolds
       帕特里夏·艾莉森 Patricia Allison
       米卡埃尔·佩斯布兰特 Mikael Persbrandt
          拉卡·塔克雷尔 Rakhee Thakrar
       杰米玛·科克 Jemima Kirke
       安-玛莉·杜芙 Anne-Marie Duff
       詹森·艾萨克 Jason Isaacs
       吉姆·霍威克 Jim Howick
       萨曼莎·斯毕洛 Samantha Spiro
       萨米·瓦塔尔巴利 Sami Outalbali
       乔治·罗宾森 George Robinson
       克里斯·詹克斯 Chris Jenks
       钦尼·埃祖杜 Chinenye Ezeudu
       杜阿·萨利赫 Dua Saleh
       乔治·索纳 George Somner
       利诺·法希奥利 Lino Facioli
       阿明·卡丽玛 Armin Karima
       乔乔·马卡里 Jojo Macari
       露易丝·奇米巴 Lois Chimimba
       亚历山大·韦斯特伍德 Alexander Westwood
       罗伯特·威尔福特 Robert Wilfort


◎简  介

  围绕不善社交的高中生奥蒂斯·米尔本展开,他和身为性治疗师的母亲珍住在一起。在第一季中,奥蒂斯和朋友梅芙·威利在学校里开办了一个性诊所,利用他的直觉天赋为同学们提供有关性的建议。在第二季中,晚熟的奥蒂斯必须控制他新发现的性冲动,以便在和女朋友欧拉的相处中取得进展,同时还要处理他与梅芙之间的紧张关系。与此同时,莫戴尔中学因衣原体感染爆发而陷入困境,这更是凸显了在学校开展更好的性教育的必要性,此外,新生入校也将挑战现状。


◎获奖情况 (共2项)
  第7届豆瓣电影年度榜单 (2020)
  评分最高的英美剧(非新剧)(提名)

  第6届豆瓣电影年度榜单 (2019)
  最值得期待的剧集(提名)






3.png


◎译  名 性爱自修室 第三季/性教育
◎年  代 2021
◎产  地 英国
◎类  别 剧情 / 喜剧
◎语  言 英语
◎首  播 2021-09-17(英国)
◎集  数 8
◎豆瓣链接 https://movie.douban.com/subject/34966169/
◎编  剧 劳瑞·纳恩 Laurie Nunn
◎主  演 阿萨·巴特菲尔德 Asa Butterfield
       艾玛·麦基 Emma Mackey
       吉莲·安德森 Gillian Anderson
       康纳·斯温德尔 Connor Swindells
       舒提·盖特瓦 Ncuti Gatwa
       杰米玛·科克 Jemima Kirke
       艾米·卢·伍德 Aimee Lou Wood
       帕特里夏·艾莉森 Patricia Allison
       凯达·威廉姆斯特灵 Kedar Williams-Stirling
       塔尼娅·雷诺兹 Tanya Reynolds
       西蒙娜·阿什利 Simone Ashley
       钦尼·埃祖杜 Chinenye Ezeudu
       阿利斯泰·皮垂 Alistair Petrie
       詹森·艾萨克 Jason Isaacs
       米米·基恩 Mimi Keene
       钱尼尔·库勒 Chaneil Kular
       米卡埃尔·佩斯布兰特 Mikael Persbrandt
       乔治·罗宾森 George Robinson
       杜阿·萨利赫 Dua Saleh
       亚历山大·韦斯特伍德 Alexander Westwood
       Ronnie Deighton
       Hannah Cheng



◎简  介

  新的一年,奥蒂斯有了新恋情,埃里克和亚当正式牵手,珍也怀孕了。与此同时,新校长霍普试图让莫戴尔重新成为卓越的代名词,艾梅探索女权主义,杰克逊陷入单相思,丢失的语音信箱成为伏笔。为守约动物、外星现象、外阴纸杯蛋糕以及格罗夫夫人的更多精彩演出做好准备。

◎获奖情况 (共2项)

  第12届美国评论家选择电视奖 (2022)
  喜剧类最佳男配角(提名) 舒提·盖特瓦

  第7届豆瓣电影年度榜单 (2020)
  最值得期待的剧集(提名)

Video
ID : 1
Format : HEVC
Format/Info : High Efficiency Video Coding
Format profile : Main 10@L5@Main
HDR format : Dolby Vision, Version 1.0, dvhe.08.07, BL+RPU, HDR10 compatible / SMPTE ST 2086, HDR10 compatible
Codec ID : V_MPEGH/ISO/HEVC
Duration : 59 min 14 s
Bit rate : 15.4 Mb/s
Width : 3 840 pixels
Height : 2 160 pixels
Display aspect ratio : 16:9
Frame rate mode : Constant
Frame rate : 25.000 FPS
Color space : YUV
Chroma subsampling : 4:2:0 (Type 2)
Bit depth : 10 bits
Bits/(Pixel*Frame) : 0.074
Stream size : 6.39 GiB (96%)
Default : Yes
Forced : No
Color range : Limited
Color primaries : BT.2020
Transfer characteristics : PQ
Matrix coefficients : BT.2020 non-constant
Mastering display color primaries : Display P3
Mastering display luminance : min: 0.0001 cd/m2, max: 1000 cd/m2
Maximum Content Light Level : 3752 cd/m2
Maximum Frame-Average Light Level : 225 cd/m2

Audio
ID : 2
Format : E-AC-3
Format/Info : Enhanced AC-3
Commercial name : Dolby Digital Plus
Codec ID : A_EAC3
Duration : 1 h 1 min
Bit rate mode : Constant
Bit rate : 640 kb/s
Channel(s) : 6 channels
Channel layout : L R C LFE Ls Rs
Sampling rate : 48.0 kHz
Frame rate : 31.250 FPS (1536 SPF)
Compression mode : Lossy
Stream size : 280 MiB (4%)
Language : English
Service kind : Complete Main
Default : Yes
Forced : No

Text #1
ID : 3
Format : UTF-8
Codec ID : S_TEXT/UTF8
Codec ID/Info : UTF-8 Plain Text
Duration : 59 min 0 s
Bit rate : 81 b/s
Frame rate : 0.311 FPS
Count of elements : 1101
Stream size : 35.3 KiB (0%)
Title : [CC]
Language : English
Default : Yes
Forced : No

Text #2
ID : 4
Format : UTF-8
Codec ID : S_TEXT/UTF8
Codec ID/Info : UTF-8 Plain Text
Duration : 58 min 45 s
Bit rate : 105 b/s
Frame rate : 0.245 FPS
Count of elements : 865
Stream size : 45.6 KiB (0%)
Language : Arabic
Default : No
Forced : No

Text #3
ID : 5
Format : UTF-8
Codec ID : S_TEXT/UTF8
Codec ID/Info : UTF-8 Plain Text
Duration : 58 min 45 s
Bit rate : 59 b/s
Frame rate : 0.241 FPS
Count of elements : 849
Stream size : 25.5 KiB (0%)
Language : Czech
Default : No
Forced : No

Text #4
ID : 6
Format : UTF-8
Codec ID : S_TEXT/UTF8
Codec ID/Info : UTF-8 Plain Text
Duration : 58 min 45 s
Bit rate : 56 b/s
Frame rate : 0.219 FPS
Count of elements : 772
Stream size : 24.2 KiB (0%)
Language : Danish
Default : No
Forced : No

Text #5
ID : 7
Format : UTF-8
Codec ID : S_TEXT/UTF8
Codec ID/Info : UTF-8 Plain Text
Duration : 58 min 46 s
Bit rate : 58 b/s
Frame rate : 0.226 FPS
Count of elements : 797
Stream size : 25.1 KiB (0%)
Language : German
Default : No
Forced : No

Text #6
ID : 8
Format : UTF-8
Codec ID : S_TEXT/UTF8
Codec ID/Info : UTF-8 Plain Text
Duration : 58 min 46 s
Bit rate : 103 b/s
Frame rate : 0.236 FPS
Count of elements : 831
Stream size : 44.4 KiB (0%)
Language : Greek
Default : No
Forced : No

Text #7
ID : 9
Format : UTF-8
Codec ID : S_TEXT/UTF8
Codec ID/Info : UTF-8 Plain Text
Duration : 58 min 45 s
Bit rate : 57 b/s
Frame rate : 0.239 FPS
Count of elements : 841
Stream size : 24.9 KiB (0%)
Language : Spanish
Default : No
Forced : No

Text #8
ID : 10
Format : UTF-8
Codec ID : S_TEXT/UTF8
Codec ID/Info : UTF-8 Plain Text
Duration : 58 min 46 s
Bit rate : 58 b/s
Frame rate : 0.242 FPS
Count of elements : 853
Stream size : 25.3 KiB (0%)
Title : European
Language : Spanish
Default : No
Forced : No

Text #9
ID : 11
Format : UTF-8
Codec ID : S_TEXT/UTF8
Codec ID/Info : UTF-8 Plain Text
Duration : 58 min 46 s
Bit rate : 59 b/s
Frame rate : 0.198 FPS
Count of elements : 698
Stream size : 25.5 KiB (0%)
Language : Finnish
Default : No
Forced : No

Text #10
ID : 12
Format : UTF-8
Codec ID : S_TEXT/UTF8
Codec ID/Info : UTF-8 Plain Text
Duration : 58 min 46 s
Bit rate : 59 b/s
Frame rate : 0.233 FPS
Count of elements : 821
Stream size : 25.7 KiB (0%)
Language : French
Default : No
Forced : No

Text #11
ID : 13
Format : UTF-8
Codec ID : S_TEXT/UTF8
Codec ID/Info : UTF-8 Plain Text
Duration : 58 min 45 s
Bit rate : 96 b/s
Frame rate : 0.236 FPS
Count of elements : 832
Stream size : 41.6 KiB (0%)
Language : Hebrew
Default : No
Forced : No

Text #12
ID : 14
Format : UTF-8
Codec ID : S_TEXT/UTF8
Codec ID/Info : UTF-8 Plain Text
Duration : 58 min 45 s
Bit rate : 55 b/s
Frame rate : 0.224 FPS
Count of elements : 790
Stream size : 23.7 KiB (0%)
Language : Croatian
Default : No
Forced : No

Text #13
ID : 15
Format : UTF-8
Codec ID : S_TEXT/UTF8
Codec ID/Info : UTF-8 Plain Text
Duration : 58 min 46 s
Bit rate : 57 b/s
Frame rate : 0.229 FPS
Count of elements : 809
Stream size : 24.6 KiB (0%)
Language : Hungarian
Default : No
Forced : No

Text #14
ID : 16
Format : UTF-8
Codec ID : S_TEXT/UTF8
Codec ID/Info : UTF-8 Plain Text
Duration : 58 min 46 s
Bit rate : 59 b/s
Frame rate : 0.238 FPS
Count of elements : 838
Stream size : 25.7 KiB (0%)
Language : Indonesian
Default : No
Forced : No

Text #15
ID : 17
Format : UTF-8
Codec ID : S_TEXT/UTF8
Codec ID/Info : UTF-8 Plain Text
Duration : 58 min 42 s
Bit rate : 55 b/s
Frame rate : 0.229 FPS
Count of elements : 805
Stream size : 23.9 KiB (0%)
Language : Italian
Default : No
Forced : No

Text #16
ID : 18
Format : UTF-8
Codec ID : S_TEXT/UTF8
Codec ID/Info : UTF-8 Plain Text
Duration : 58 min 46 s
Bit rate : 56 b/s
Frame rate : 0.243 FPS
Count of elements : 856
Stream size : 24.5 KiB (0%)
Language : Japanese
Default : No
Forced : No

Text #17
ID : 19
Format : UTF-8
Codec ID : S_TEXT/UTF8
Codec ID/Info : UTF-8 Plain Text
Duration : 58 min 45 s
Bit rate : 74 b/s
Frame rate : 0.246 FPS
Count of elements : 869
Stream size : 32.3 KiB (0%)
Language : Korean
Default : No
Forced : No

Text #18
ID : 20
Format : UTF-8
Codec ID : S_TEXT/UTF8
Codec ID/Info : UTF-8 Plain Text
Duration : 58 min 46 s
Bit rate : 54 b/s
Frame rate : 0.232 FPS
Count of elements : 819
Stream size : 23.3 KiB (0%)
Language : Malay
Default : No
Forced : No

Text #19
ID : 21
Format : UTF-8
Codec ID : S_TEXT/UTF8
Codec ID/Info : UTF-8 Plain Text
Duration : 58 min 46 s
Bit rate : 55 b/s
Frame rate : 0.218 FPS
Count of elements : 768
Stream size : 23.8 KiB (0%)
Language : Norwegian Bokmal
Default : No
Forced : No

Text #20
ID : 22
Format : UTF-8
Codec ID : S_TEXT/UTF8
Codec ID/Info : UTF-8 Plain Text
Duration : 58 min 46 s
Bit rate : 55 b/s
Frame rate : 0.211 FPS
Count of elements : 744
Stream size : 23.9 KiB (0%)
Language : Dutch
Default : No
Forced : No

Text #21
ID : 23
Format : UTF-8
Codec ID : S_TEXT/UTF8
Codec ID/Info : UTF-8 Plain Text
Duration : 58 min 45 s
Bit rate : 55 b/s
Frame rate : 0.242 FPS
Count of elements : 853
Stream size : 23.7 KiB (0%)
Language : Polish
Default : No
Forced : No

Text #22
ID : 24
Format : UTF-8
Codec ID : S_TEXT/UTF8
Codec ID/Info : UTF-8 Plain Text
Duration : 58 min 45 s
Bit rate : 59 b/s
Frame rate : 0.234 FPS
Count of elements : 826
Stream size : 25.5 KiB (0%)
Language : Portuguese
Default : No
Forced : No

Text #23
ID : 25
Format : UTF-8
Codec ID : S_TEXT/UTF8
Codec ID/Info : UTF-8 Plain Text
Duration : 58 min 46 s
Bit rate : 59 b/s
Frame rate : 0.232 FPS
Count of elements : 819
Stream size : 25.6 KiB (0%)
Title : Brazilian
Language : Portuguese
Default : No
Forced : No

Text #24
ID : 26
Format : UTF-8
Codec ID : S_TEXT/UTF8
Codec ID/Info : UTF-8 Plain Text
Duration : 58 min 46 s
Bit rate : 65 b/s
Frame rate : 0.231 FPS
Count of elements : 814
Stream size : 28.1 KiB (0%)
Language : Romanian
Default : No
Forced : No

Text #25
ID : 27
Format : UTF-8
Codec ID : S_TEXT/UTF8
Codec ID/Info : UTF-8 Plain Text
Duration : 58 min 46 s
Bit rate : 94 b/s
Frame rate : 0.242 FPS
Count of elements : 852
Stream size : 40.7 KiB (0%)
Language : Russian
Default : No
Forced : No

Text #26
ID : 28
Format : UTF-8
Codec ID : S_TEXT/UTF8
Codec ID/Info : UTF-8 Plain Text
Duration : 58 min 46 s
Bit rate : 55 b/s
Frame rate : 0.225 FPS
Count of elements : 793
Stream size : 23.9 KiB (0%)
Language : Swedish
Default : No
Forced : No

Text #27
ID : 29
Format : UTF-8
Codec ID : S_TEXT/UTF8
Codec ID/Info : UTF-8 Plain Text
Duration : 58 min 46 s
Bit rate : 151 b/s
Frame rate : 0.241 FPS
Count of elements : 850
Stream size : 65.1 KiB (0%)
Language : Thai
Default : No
Forced : No

Text #28
ID : 30
Format : UTF-8
Codec ID : S_TEXT/UTF8
Codec ID/Info : UTF-8 Plain Text
Duration : 58 min 46 s
Bit rate : 59 b/s
Frame rate : 0.202 FPS
Count of elements : 711
Stream size : 25.8 KiB (0%)
Language : Turkish
Default : No
Forced : No

Text #29
ID : 31
Format : UTF-8
Codec ID : S_TEXT/UTF8
Codec ID/Info : UTF-8 Plain Text
Duration : 58 min 45 s
Bit rate : 95 b/s
Frame rate : 0.237 FPS
Count of elements : 837
Stream size : 41.3 KiB (0%)
Language : Ukrainian
Default : No
Forced : No

Text #30
ID : 32
Format : UTF-8
Codec ID : S_TEXT/UTF8
Codec ID/Info : UTF-8 Plain Text
Duration : 58 min 46 s
Bit rate : 83 b/s
Frame rate : 0.234 FPS
Count of elements : 826
Stream size : 35.9 KiB (0%)
Language : Vietnamese
Default : No
Forced : No

Text #31
ID : 33
Format : UTF-8
Codec ID : S_TEXT/UTF8
Codec ID/Info : UTF-8 Plain Text
Duration : 58 min 46 s
Bit rate : 65 b/s
Frame rate : 0.239 FPS
Count of elements : 843
Stream size : 28.1 KiB (0%)
Title : Simplified
Language : Chinese
Default : No
Forced : No

Text #32
ID : 34
Format : UTF-8
Codec ID : S_TEXT/UTF8
Codec ID/Info : UTF-8 Plain Text
Duration : 58 min 45 s
Bit rate : 65 b/s
Frame rate : 0.263 FPS
Count of elements : 927
Stream size : 28.2 KiB (0%)
Title : Traditional
Language : Chinese
Default : No
Forced : No
下载地址:

游客,如果您要查看本帖隐藏内容请回复

游客,如果您要查看本帖隐藏内容请回复

游客,如果您要查看本帖隐藏内容请回复








上一篇:捍卫者联盟 [简繁中字] (2017)/第一季8集全 / 4K高清下载
下一篇:太阳召唤 [简繁中字] (2021)/第一季8集全 / 4K高清下载
回复

使用道具 举报

0

主题

1383

帖子

4165

积分

4K家园VIP

Rank: 9Rank: 9Rank: 9

积分
4165
发表于 2022-7-19 10:46:05 | 显示全部楼层
试试先,好用再说
回复 支持 反对

使用道具 举报

2

主题

1422

帖子

4288

积分

4K家园VIP

Rank: 9Rank: 9Rank: 9

积分
4288
发表于 2022-7-19 12:28:43 | 显示全部楼层
啥玩应呀
回复 支持 反对

使用道具 举报

52

主题

1535

帖子

4427

积分

4K家园VIP

Rank: 9Rank: 9Rank: 9

积分
4427
发表于 2022-7-19 14:20:04 | 显示全部楼层
顶起顶起顶起
回复 支持 反对

使用道具 举报

2

主题

1200

帖子

3618

积分

4K家园VIP

Rank: 9Rank: 9Rank: 9

积分
3618
发表于 2022-7-19 15:11:21 | 显示全部楼层
感谢推荐,确实不错
回复 支持 反对

使用道具 举报

0

主题

1346

帖子

4060

积分

4K家园VIP

Rank: 9Rank: 9Rank: 9

积分
4060
发表于 2022-7-19 15:25:38 | 显示全部楼层
秀起来~
回复 支持 反对

使用道具 举报

0

主题

4

帖子

85

积分

新手上路

Rank: 1

积分
85
发表于 2022-7-20 22:14:50 | 显示全部楼层
看过,再来看看
回复 支持 反对

使用道具 举报

0

主题

1

帖子

6

积分

新手上路

Rank: 1

积分
6
发表于 2022-7-25 15:28:00 来自手机 | 显示全部楼层
lznb克拉斯
回复 支持 反对

使用道具 举报

0

主题

1

帖子

10

积分

新手上路

Rank: 1

积分
10
发表于 2022-7-25 16:21:58 | 显示全部楼层
so goog
回复

使用道具 举报

0

主题

41

帖子

610

积分

4K家园VIP

Rank: 9Rank: 9Rank: 9

积分
610
发表于 2022-7-25 16:45:54 | 显示全部楼层
谢谢分享
回复

使用道具 举报

您需要登录后才可以回帖 登录 | 立即注册

本版积分规则

精彩图文
Archiver|手机版|TAG|Sitemap|新帖|专题|联系我们:邮箱: 4kjia.com@gmail.com   

4k家园   ©2019