太阳召唤 [简繁中字] (2021)/第一季8集全 / 4K高清下载

[复制链接]

194

主题

217

帖子

2109

积分

版主

Rank: 7Rank: 7Rank: 7

积分
2109
 楼主| 发表于 2022-7-19 10:51:31 | 显示全部楼层 |阅读模式
p2641431240_副本.jpg

◎译  名 太阳召唤
◎片  名 Shadow and Bone
◎年  代 2021
◎产  地 美国
◎类  别 剧情/动作/奇幻
◎语  言 英语
◎上映日期 2021-04-23(美国)
◎IMDb评分  8.6/10 from 831 users
◎IMDb链接  https://www.imdb.com/title/tt2403776/
◎豆瓣评分 7.3/10 from 5409 users
◎豆瓣链接 https://douban.com/subject/30428349/
◎集  数 8
◎编  剧 万尼亚·阿瑟 Vanya Asher / Daegan Fryklind / 埃里克·海瑟尔 Eric Heisserer / 李·巴杜格 Leigh Bardugo / 克里斯蒂娜·斯特兰 Christina Strain
◎主  演 洁西·梅·李 Jessie Mei Li
       本·巴恩斯 Ben Barnes
       弗莱迪·卡特 Freddy Carter
       阿奇·雷诺 Archie Renaux
       西蒙·西尔斯 Simon Sears
       朱利安·科斯托夫 Julian Kostov
       黛茜·海德 Daisy Head
       萨贾雅·达什古普塔 Sujaya Dasgupta
       卡罗琳·博尔顿 Caroline Boulton
       吉姆·海伊 Jim High
       伊丽莎白·里德 Elizabeth Rider
       大卫·韦雷 David Verrey
       艾玛·博科维奇 Emma Bercovici
       霍华德·查尔斯 Howard Charles
       凯文·埃尔登 Kevin Eldon
       肖恩·吉尔德 Sean Gilder
       罗德里克·希尔 Roderick Hill
       Genesis Lynea
       Cody Molko
       戈登·莫里斯 Gordon Morris
       迪尔德丽·穆林斯 Deirdre Mullins
       卢克·帕斯夸尼洛 Luke Pasqualino
       Mark C. Phelan
       罗宾·希纳西 Roby Schinasi
       Júlia Ubrankovics
       佐伊·沃纳梅克 Zoë Wanamaker
       安迪·阿波罗 Andy Apollo
       尼克·康沃尔 Nick Cornwall
       卡特莉娜德登 Katrina Durden
       李丹 Dan Li
       詹姆斯·希利尔 James Hillier
       史蒂文哈特利 Steven Hartley
       Hannah Atwood
       Amita Suman
       Jasmine Blackborow
       Kate Russell-Smith
       Calahan Skogman


◎简  介


  《太阳召唤》根据利·巴杜戈全球畅销的“格里莎世界”小说改编,故事背景设定在一个饱受战争蹂躏的世界里,底层士兵、孤女阿丽娜·斯达科夫突然施展出一种非凡的力量,这可能是让她的国家重获自由的关键。随着暗影黑幕巨大威胁的迫近,阿丽娜被迫远离她所熟知的一切,并受训成为格里莎魔法精英军队的一员。但就在她努力磨练自己的力量时,她发现盟友和敌人可以是同一个人,而在这个繁华的世界里,一切都暗藏玄机。危险的力量正在崛起,其中包括一群魅力超凡的罪犯,要想生存下去,光靠魔法是不够的。《太阳召唤》是由 21 Laps Entertainment 出品的 Netflix 剧集,主演阵容包括洁西·梅·李(阿丽娜·斯达科夫)、阿奇·雷诺(玛里安·奥勒瑟夫)、弗莱迪·卡特(卡兹·布瑞克)、阿米塔·休曼(伊奈什)、基特·扬(杰斯帕·费伊)和本·巴恩斯(奇利甘将军)。

Video
ID : 1
Format : HEVC
Format/Info : High Efficiency Video Coding
Format profile : Main 10@L5@Main
HDR format : Dolby Vision, Version 1.0, dvhe.08.06, BL+RPU, HDR10 compatible / SMPTE ST 2086, HDR10 compatible
Codec ID : V_MPEGH/ISO/HEVC
Duration : 57 min 5 s
Bit rate : 14.9 Mb/s
Width : 3 840 pixels
Height : 2 160 pixels
Display aspect ratio : 16:9
Frame rate mode : Constant
Frame rate : 23.976 (24000/1001) FPS
Color space : YUV
Chroma subsampling : 4:2:0 (Type 2)
Bit depth : 10 bits
Bits/(Pixel*Frame) : 0.075
Stream size : 5.94 GiB (95%)
Default : Yes
Forced : No
Color range : Limited
Color primaries : BT.2020
Transfer characteristics : PQ
Matrix coefficients : BT.2020 non-constant
Mastering display color primaries : Display P3
Mastering display luminance : min: 0.0001 cd/m2, max: 1000 cd/m2
Maximum Content Light Level : 1180 cd/m2
Maximum Frame-Average Light Level : 260 cd/m2

Audio
ID : 2
Format : E-AC-3 JOC
Format/Info : Enhanced AC-3 with Joint Object Coding
Commercial name : Dolby Digital Plus with Dolby Atmos
Codec ID : A_EAC3
Duration : 58 min 30 s
Bit rate mode : Constant
Bit rate : 768 kb/s
Channel(s) : 6 channels
Channel layout : L R C LFE Ls Rs
Sampling rate : 48.0 kHz
Frame rate : 31.250 FPS (1536 SPF)
Compression mode : Lossy
Stream size : 321 MiB (5%)
Language : English
Service kind : Complete Main
Default : Yes
Forced : No
Complexity index : 16
Number of dynamic objects : 15
Bed channel count : 1 channel
Bed channel configuration : LFE

Text #1
ID : 3
Format : UTF-8
Codec ID : S_TEXT/UTF8
Codec ID/Info : UTF-8 Plain Text
Duration : 52 min 36 s
Bit rate : 52 b/s
Frame rate : 0.208 FPS
Count of elements : 658
Stream size : 20.4 KiB (0%)
Title : [CC]
Language : English
Default : Yes
Forced : No

Text #2
ID : 4
Format : UTF-8
Codec ID : S_TEXT/UTF8
Codec ID/Info : UTF-8 Plain Text
Duration : 56 min 43 s
Bit rate : 72 b/s
Frame rate : 0.163 FPS
Count of elements : 554
Stream size : 29.9 KiB (0%)
Language : Arabic
Default : No
Forced : No

Text #3
ID : 5
Format : UTF-8
Codec ID : S_TEXT/UTF8
Codec ID/Info : UTF-8 Plain Text
Duration : 56 min 43 s
Bit rate : 66 b/s
Frame rate : 0.163 FPS
Count of elements : 554
Stream size : 27.6 KiB (0%)
Language : Bulgarian
Default : No
Forced : No

Text #4
ID : 6
Format : UTF-8
Codec ID : S_TEXT/UTF8
Codec ID/Info : UTF-8 Plain Text
Duration : 56 min 43 s
Bit rate : 39 b/s
Frame rate : 0.163 FPS
Count of elements : 554
Stream size : 16.5 KiB (0%)
Language : Czech
Default : No
Forced : No

Text #5
ID : 7
Format : UTF-8
Codec ID : S_TEXT/UTF8
Codec ID/Info : UTF-8 Plain Text
Duration : 56 min 43 s
Bit rate : 38 b/s
Frame rate : 0.163 FPS
Count of elements : 554
Stream size : 16.2 KiB (0%)
Language : Danish
Default : No
Forced : No

Text #6
ID : 8
Format : UTF-8
Codec ID : S_TEXT/UTF8
Codec ID/Info : UTF-8 Plain Text
Duration : 56 min 43 s
Bit rate : 38 b/s
Frame rate : 0.163 FPS
Count of elements : 554
Stream size : 16.1 KiB (0%)
Language : German
Default : No
Forced : No

Text #7
ID : 9
Format : UTF-8
Codec ID : S_TEXT/UTF8
Codec ID/Info : UTF-8 Plain Text
Duration : 56 min 43 s
Bit rate : 73 b/s
Frame rate : 0.163 FPS
Count of elements : 554
Stream size : 30.6 KiB (0%)
Language : Greek
Default : No
Forced : No

Text #8
ID : 10
Format : UTF-8
Codec ID : S_TEXT/UTF8
Codec ID/Info : UTF-8 Plain Text
Duration : 56 min 43 s
Bit rate : 41 b/s
Frame rate : 0.163 FPS
Count of elements : 554
Stream size : 17.2 KiB (0%)
Language : Spanish
Default : No
Forced : No

Text #9
ID : 11
Format : UTF-8
Codec ID : S_TEXT/UTF8
Codec ID/Info : UTF-8 Plain Text
Duration : 56 min 43 s
Bit rate : 39 b/s
Frame rate : 0.163 FPS
Count of elements : 554
Stream size : 16.3 KiB (0%)
Title : European
Language : Spanish
Default : No
Forced : No

Text #10
ID : 12
Format : UTF-8
Codec ID : S_TEXT/UTF8
Codec ID/Info : UTF-8 Plain Text
Duration : 56 min 43 s
Bit rate : 40 b/s
Frame rate : 0.163 FPS
Count of elements : 554
Stream size : 16.7 KiB (0%)
Language : Finnish
Default : No
Forced : No

Text #11
ID : 13
Format : UTF-8
Codec ID : S_TEXT/UTF8
Codec ID/Info : UTF-8 Plain Text
Duration : 56 min 43 s
Bit rate : 41 b/s
Frame rate : 0.160 FPS
Count of elements : 545
Stream size : 17.3 KiB (0%)
Language : French
Default : No
Forced : No

Text #12
ID : 14
Format : UTF-8
Codec ID : S_TEXT/UTF8
Codec ID/Info : UTF-8 Plain Text
Duration : 56 min 43 s
Bit rate : 68 b/s
Frame rate : 0.163 FPS
Count of elements : 554
Stream size : 28.3 KiB (0%)
Language : Hebrew
Default : No
Forced : No

Text #13
ID : 15
Format : UTF-8
Codec ID : S_TEXT/UTF8
Codec ID/Info : UTF-8 Plain Text
Duration : 56 min 43 s
Bit rate : 37 b/s
Frame rate : 0.162 FPS
Count of elements : 551
Stream size : 15.6 KiB (0%)
Language : Croatian
Default : No
Forced : No

Text #14
ID : 16
Format : UTF-8
Codec ID : S_TEXT/UTF8
Codec ID/Info : UTF-8 Plain Text
Duration : 56 min 43 s
Bit rate : 39 b/s
Frame rate : 0.162 FPS
Count of elements : 552
Stream size : 16.5 KiB (0%)
Language : Hungarian
Default : No
Forced : No

Text #15
ID : 17
Format : UTF-8
Codec ID : S_TEXT/UTF8
Codec ID/Info : UTF-8 Plain Text
Duration : 56 min 43 s
Bit rate : 38 b/s
Frame rate : 0.163 FPS
Count of elements : 554
Stream size : 16.1 KiB (0%)
Language : Indonesian
Default : No
Forced : No

Text #16
ID : 18
Format : UTF-8
Codec ID : S_TEXT/UTF8
Codec ID/Info : UTF-8 Plain Text
Duration : 56 min 43 s
Bit rate : 40 b/s
Frame rate : 0.162 FPS
Count of elements : 553
Stream size : 16.9 KiB (0%)
Language : Italian
Default : No
Forced : No

Text #17
ID : 19
Format : UTF-8
Codec ID : S_TEXT/UTF8
Codec ID/Info : UTF-8 Plain Text
Duration : 56 min 43 s
Bit rate : 39 b/s
Frame rate : 0.155 FPS
Count of elements : 528
Stream size : 16.3 KiB (0%)
Language : Japanese
Default : No
Forced : No

Text #18
ID : 20
Format : UTF-8
Codec ID : S_TEXT/UTF8
Codec ID/Info : UTF-8 Plain Text
Duration : 56 min 43 s
Bit rate : 55 b/s
Frame rate : 0.163 FPS
Count of elements : 554
Stream size : 23.0 KiB (0%)
Language : Korean
Default : No
Forced : No

Text #19
ID : 21
Format : UTF-8
Codec ID : S_TEXT/UTF8
Codec ID/Info : UTF-8 Plain Text
Duration : 56 min 43 s
Bit rate : 41 b/s
Frame rate : 0.163 FPS
Count of elements : 554
Stream size : 17.0 KiB (0%)
Language : Malay
Default : No
Forced : No

Text #20
ID : 22
Format : UTF-8
Codec ID : S_TEXT/UTF8
Codec ID/Info : UTF-8 Plain Text
Duration : 56 min 43 s
Bit rate : 38 b/s
Frame rate : 0.163 FPS
Count of elements : 554
Stream size : 16.0 KiB (0%)
Language : Norwegian Bokmal
Default : No
Forced : No

Text #21
ID : 23
Format : UTF-8
Codec ID : S_TEXT/UTF8
Codec ID/Info : UTF-8 Plain Text
Duration : 56 min 43 s
Bit rate : 39 b/s
Frame rate : 0.157 FPS
Count of elements : 533
Stream size : 16.3 KiB (0%)
Language : Dutch
Default : No
Forced : No

Text #22
ID : 24
Format : UTF-8
Codec ID : S_TEXT/UTF8
Codec ID/Info : UTF-8 Plain Text
Duration : 56 min 43 s
Bit rate : 39 b/s
Frame rate : 0.162 FPS
Count of elements : 551
Stream size : 16.3 KiB (0%)
Language : Polish
Default : No
Forced : No

Text #23
ID : 25
Format : UTF-8
Codec ID : S_TEXT/UTF8
Codec ID/Info : UTF-8 Plain Text
Duration : 56 min 43 s
Bit rate : 39 b/s
Frame rate : 0.162 FPS
Count of elements : 553
Stream size : 16.2 KiB (0%)
Language : Portuguese
Default : No
Forced : No

Text #24
ID : 26
Format : UTF-8
Codec ID : S_TEXT/UTF8
Codec ID/Info : UTF-8 Plain Text
Duration : 56 min 43 s
Bit rate : 39 b/s
Frame rate : 0.163 FPS
Count of elements : 554
Stream size : 16.4 KiB (0%)
Title : Brazilian
Language : Portuguese
Default : No
Forced : No

Text #25
ID : 27
Format : UTF-8
Codec ID : S_TEXT/UTF8
Codec ID/Info : UTF-8 Plain Text
Duration : 56 min 43 s
Bit rate : 44 b/s
Frame rate : 0.163 FPS
Count of elements : 554
Stream size : 18.6 KiB (0%)
Language : Romanian
Default : No
Forced : No

Text #26
ID : 28
Format : UTF-8
Codec ID : S_TEXT/UTF8
Codec ID/Info : UTF-8 Plain Text
Duration : 56 min 43 s
Bit rate : 67 b/s
Frame rate : 0.163 FPS
Count of elements : 554
Stream size : 28.1 KiB (0%)
Language : Russian
Default : No
Forced : No

Text #27
ID : 29
Format : UTF-8
Codec ID : S_TEXT/UTF8
Codec ID/Info : UTF-8 Plain Text
Duration : 56 min 43 s
Bit rate : 39 b/s
Frame rate : 0.163 FPS
Count of elements : 554
Stream size : 16.4 KiB (0%)
Language : Swedish
Default : No
Forced : No

Text #28
ID : 30
Format : UTF-8
Codec ID : S_TEXT/UTF8
Codec ID/Info : UTF-8 Plain Text
Duration : 56 min 43 s
Bit rate : 114 b/s
Frame rate : 0.163 FPS
Count of elements : 554
Stream size : 47.5 KiB (0%)
Language : Thai
Default : No
Forced : No

Text #29
ID : 31
Format : UTF-8
Codec ID : S_TEXT/UTF8
Codec ID/Info : UTF-8 Plain Text
Duration : 56 min 43 s
Bit rate : 41 b/s
Frame rate : 0.162 FPS
Count of elements : 553
Stream size : 17.2 KiB (0%)
Language : Turkish
Default : No
Forced : No

Text #30
ID : 32
Format : UTF-8
Codec ID : S_TEXT/UTF8
Codec ID/Info : UTF-8 Plain Text
Duration : 56 min 43 s
Bit rate : 68 b/s
Frame rate : 0.163 FPS
Count of elements : 554
Stream size : 28.5 KiB (0%)
Language : Ukrainian
Default : No
Forced : No

Text #31
ID : 33
Format : UTF-8
Codec ID : S_TEXT/UTF8
Codec ID/Info : UTF-8 Plain Text
Duration : 56 min 43 s
Bit rate : 57 b/s
Frame rate : 0.162 FPS
Count of elements : 552
Stream size : 24.0 KiB (0%)
Language : Vietnamese
Default : No
Forced : No

Text #32
ID : 34
Format : UTF-8
Codec ID : S_TEXT/UTF8
Codec ID/Info : UTF-8 Plain Text
Duration : 56 min 43 s
Bit rate : 47 b/s
Frame rate : 0.163 FPS
Count of elements : 554
Stream size : 19.7 KiB (0%)
Title : 中文(简体)
Language : 中文
Default : No
Forced : No

Text #33
ID : 35
Format : UTF-8
Codec ID : S_TEXT/UTF8
Codec ID/Info : UTF-8 Plain Text
Duration : 56 min 43 s
Bit rate : 43 b/s
Frame rate : 0.163 FPS
Count of elements : 554
Stream size : 18.1 KiB (0%)
Title : 中文(繁体)
Language : 中文
Default : No
Forced : No
下载地址:

游客,如果您要查看本帖隐藏内容请回复

游客,如果您要查看本帖隐藏内容请回复





上一篇:性爱自修室[简繁中字] (2021)/第一、二、三季全 / 4K高清下载
下一篇:十三个原因 [简繁中字] (2021)/一,二,三,四季全 / 4K高清
回复

使用道具 举报

0

主题

1348

帖子

4072

积分

4K家园VIP

Rank: 9Rank: 9Rank: 9

积分
4072
发表于 2022-7-19 10:51:40 来自手机 | 显示全部楼层
我也来顶一下..
回复 支持 反对

使用道具 举报

0

主题

8337

帖子

1万

积分

4K家园VIP

Rank: 9Rank: 9Rank: 9

积分
19388
发表于 2022-7-19 11:45:03 | 显示全部楼层
太好啦&萬分感謝版主的無私發佈分享%
回复 支持 反对

使用道具 举报

0

主题

5

帖子

18

积分

新手上路

Rank: 1

积分
18
发表于 2022-7-19 21:12:26 | 显示全部楼层
很棒,难得的资源
回复 支持 反对

使用道具 举报

66

主题

1549

帖子

4511

积分

4K家园VIP

Rank: 9Rank: 9Rank: 9

积分
4511
发表于 2022-7-20 00:31:35 来自手机 | 显示全部楼层
我是个凑数的。。。
回复 支持 反对

使用道具 举报

3

主题

1382

帖子

4164

积分

4K家园VIP

Rank: 9Rank: 9Rank: 9

积分
4164
发表于 2022-7-22 22:23:08 | 显示全部楼层
支持,赞一个
回复 支持 反对

使用道具 举报

38

主题

1552

帖子

4436

积分

4K家园VIP

Rank: 9Rank: 9Rank: 9

积分
4436
发表于 2022-7-23 21:19:11 | 显示全部楼层
求沙发
回复 支持 反对

使用道具 举报

1

主题

1388

帖子

4006

积分

4K家园VIP

Rank: 9Rank: 9Rank: 9

积分
4006
发表于 2022-7-26 13:10:56 | 显示全部楼层
什么东西啊
回复 支持 反对

使用道具 举报

您需要登录后才可以回帖 登录 | 立即注册

本版积分规则

精彩图文
Archiver|手机版|TAG|Sitemap|新帖|专题|联系我们:邮箱: 4kjia.com@gmail.com   

4k家园   ©2019