维多利亚的秘密:天使与恶魔(2022) 第一季3集/4K高清版本下载

[复制链接]

194

主题

217

帖子

2109

积分

版主

Rank: 7Rank: 7Rank: 7

积分
2109
 楼主| 发表于 2022-7-19 12:52:35 | 显示全部楼层 |阅读模式

d329b1aeba4226f3257a00564cb1bf04_副本.jpg

◎译  名 维多利亚的秘密:天使与恶魔
◎片  名 Victoria's Secret: Angels and Demons
◎年  代 2022
◎产  地 美国
◎类  别 纪录片
◎语  言 英语
◎上映日期 2022-07-14(美国)
◎IMDb评分 5.9/10 from 55 users
◎IMDb链接 https://www.imdb.com/title/tt19784922/

◎豆瓣评分 /10 from 0 users
◎豆瓣链接 https://douban.com/subject/35975713/
◎集  数 3
◎主  演 弗雷德里克·范德沃尔 Frederique Van Der Wal
                    索菲·安德森 Sophie Anderson
                    莎拉·佐夫科 Sara Zofko
                    辛迪·费杜斯-菲尔兹 Cindy Fedus-Fields
                    琳赛·斯科特 Lyndsey Scott
                    迈克尔·格罗斯 Michael Gross
                    盖伊·雷蒙德 Gaye Raymond
                    泰瑞·阿金斯 Teri Agins
                    海蒂·扎克 Heidi Zak
                    诺亚·库尔文 Noah Kulwin
                    哈维·瓦瑟曼 Harvey Wasserman
                    蒂姆·费兰 Tim Feran
                    迈克尔·科廷 Michael Curtin
                    莎拉·埃里森 Sarah Ellison
                    阿什利·米尔斯 Ashley Mears
                    明迪·米德斯 Mindy Meads
                    林赛·卡塞拉 Lindsey Casella
                    妮可·菲尔普斯 Nicole Phelps



◎简  介

  接下来是马特·泰诺尔(MattTyrnauer)和神秘的亿万富翁莱斯·韦克斯纳(LesWexner),以及维多利亚的秘密品牌。

Video
ID : 1
Format : HEVC
Format/Info : High Efficiency Video Coding
Format profile : Main 10@L5.1@Main
Codec ID : V_MPEGH/ISO/HEVC
Duration : 56 min 34 s
Bit rate : 13.1 Mb/s
Width : 3 840 pixels
Height : 2 160 pixels
Display aspect ratio : 16:9
Frame rate mode : Constant
Frame rate : 23.976 (24000/1001) FPS
Color space : YUV
Chroma subsampling : 4:2:0
Bit depth : 10 bits
Bits/(Pixel*Frame) : 0.066
Stream size : 5.17 GiB (96%)
Default : Yes
Forced : No

Audio
ID : 2
Format : E-AC-3
Format/Info : Enhanced AC-3
Commercial name : Dolby Digital Plus
Codec ID : A_EAC3
Duration : 56 min 34 s
Bit rate mode : Constant
Bit rate : 256 kb/s
Channel(s) : 6 channels
Channel layout : L R C LFE Ls Rs
Sampling rate : 48.0 kHz
Frame rate : 31.250 FPS (1536 SPF)
Compression mode : Lossy
Stream size : 104 MiB (2%)
Language : English
Service kind : Complete Main
Default : Yes
Forced : No

Text #1
ID : 3
Format : UTF-8
Codec ID : S_TEXT/UTF8
Codec ID/Info : UTF-8 Plain Text
Title : English [SDH]
Language : English
Default : No
Forced : No

Text #2
ID : 4
Format : UTF-8
Codec ID : S_TEXT/UTF8
Codec ID/Info : UTF-8 Plain Text
Title : Spanish [SDH]
Language : Spanish
Default : No
Forced : No
下载地址:

游客,如果您要查看本帖隐藏内容请回复





上一篇:寂静之海 [简繁中字] (2021)/第一季8集全 / 4K高清下载
下一篇:黑镜 [简繁中字] /Black Mirror (2017) 第四季全6集/4K高清版本下载
回复

使用道具 举报

2

主题

1356

帖子

3904

积分

4K家园VIP

Rank: 9Rank: 9Rank: 9

积分
3904
发表于 2022-7-19 12:52:49 来自手机 | 显示全部楼层
多发些资源啊
回复 支持 反对

使用道具 举报

0

主题

4

帖子

21

积分

新手上路

Rank: 1

积分
21
发表于 2022-7-19 14:43:11 | 显示全部楼层
谢谢分享
回复

使用道具 举报

2

主题

1465

帖子

4231

积分

4K家园VIP

Rank: 9Rank: 9Rank: 9

积分
4231
发表于 2022-7-19 16:08:58 | 显示全部楼层
感谢分享
回复 支持 反对

使用道具 举报

0

主题

5

帖子

18

积分

新手上路

Rank: 1

积分
18
发表于 2022-7-19 21:13:07 | 显示全部楼层
不错
回复

使用道具 举报

0

主题

6

帖子

19

积分

新手上路

Rank: 1

积分
19
发表于 2022-7-20 00:27:35 | 显示全部楼层

0
主题       
4
帖子       
21
积分
Rank: 1
积分21
发消息
板凳
发表于 昨天 14:43 | 只看该作者
谢谢分享
回复 支持 反对

使用道具 举报

2

主题

1394

帖子

4206

积分

4K家园VIP

Rank: 9Rank: 9Rank: 9

积分
4206
发表于 2022-7-20 00:37:04 来自手机 | 显示全部楼层
都不知道说的啥
回复 支持 反对

使用道具 举报

0

主题

5

帖子

27

积分

新手上路

Rank: 1

积分
27
发表于 2022-7-20 01:20:02 | 显示全部楼层
看看能不能下载
回复 支持 反对

使用道具 举报

0

主题

90

帖子

522

积分

新手上路

Rank: 1

积分
522
发表于 2022-7-20 09:22:23 | 显示全部楼层
多发些资源
回复 支持 反对

使用道具 举报

0

主题

4

帖子

25

积分

新手上路

Rank: 1

积分
25
发表于 2022-7-20 12:34:36 | 显示全部楼层
菩萨也, 我以为是秀??? 谢谢楼主分享
回复 支持 反对

使用道具 举报

您需要登录后才可以回帖 登录 | 立即注册

本版积分规则

精彩图文
Archiver|手机版|TAG|Sitemap|新帖|专题|联系我们:邮箱: 4kjia.com@gmail.com   

4k家园   ©2019