[4K电影] 男人 / Men (2022) 4K高清版本下载

[复制链接]

2118

主题

2259

帖子

1万

积分

超级版主

Rank: 8Rank: 8

积分
16577
 楼主| 发表于 2022-7-19 21:04:35 | 显示全部楼层 |阅读模式
本帖最后由 最爱4K哟 于 2022-7-19 21:05 编辑

QQ图片20220719205902_副本.png

◎标  题 男人
◎译  名 们(台) / 人类 / 人们 / 男人们 / 人山人海
◎片  名 Men
◎年  代 2022
◎产  地 英国
◎类  别 剧情 / 科幻 / 恐怖
◎语  言 英语
◎上映日期 2022-05-20(美国)
◎IMDb评分 6.1/10 from 19078 users
◎IMDb链接 https://www.imdb.com/title/tt13841850/
◎豆瓣评分 6.9/10 from 9987 users
◎豆瓣链接 https://movie.douban.com/subject/35341588/
◎片  长 100分钟
◎导  演 亚历克斯·加兰 Alex Garland
◎编  剧 亚历克斯·加兰 Alex Garland
◎演  员 杰西·巴克利 Jessie Buckley
       罗里·金尼尔 Rory Kinnear
       帕帕·厄希度 Paapa Essiedu
       盖尔·兰金 Gayle Rankin
       莎拉·托米 Sarah Twomey
       扎克·罗瑟拉-奥克斯利 Zak Rothera-Oxley
       水野索诺娅 Sonoya Mizuno

◎简  介

  丈夫过世之后,哈珀(杰西巴克利 饰)来到一处美丽的英国乡村疗伤,然而,这里的树林中似乎有某人或某物在跟踪她,这些潜藏在她心中隐约的恐惧,随着时间逐渐转变成具体的恶梦……

Video
ID : 1
Format : HEVC
Format/Info : High Efficiency Video Coding
Format profile : Main 10@L5@High
HDR format : SMPTE ST 2086, HDR10 compatible
Codec ID : V_MPEGH/ISO/HEVC
Duration : 1 h 40 min
Bit rate : 14.4 Mb/s
Width : 3 836 pixels
Height : 2 072 pixels
Display aspect ratio : 1.85:1
Frame rate mode : Constant
Frame rate : 23.976 FPS
Color space : YUV
Chroma subsampling : 4:2:0 (Type 2)
Bit depth : 10 bits
Bits/(Pixel*Frame) : 0.075
Stream size : 10.0 GiB (95%)
Default : Yes
Forced : No
Color range : Limited
Color primaries : BT.2020
Transfer characteristics : PQ
Matrix coefficients : BT.2020 non-constant
Mastering display color primaries : Display P3
Mastering display luminance : min: 0.0050 cd/m2, max: 1000 cd/m2
Maximum Content Light Level : 7056 cd/m2
Maximum Frame-Average Light Level : 128 cd/m2

Audio
ID : 2
Format : E-AC-3 JOC
Format/Info : Enhanced AC-3 with Joint Object Coding
Commercial name : Dolby Digital Plus with Dolby Atmos
Codec ID : A_EAC3
Duration : 1 h 40 min
Bit rate mode : Constant
Bit rate : 768 kb/s
Channel(s) : 6 channels
Channel layout : L R C LFE Ls Rs
Sampling rate : 48.0 kHz
Frame rate : 31.250 FPS (1536 SPF)
Compression mode : Lossy
Stream size : 550 MiB (5%)
Title : British
Language : English
Service kind : Complete Main
Default : Yes
Forced : No
Complexity index : 16
Number of dynamic objects : 15
Bed channel count : 1 channel
Bed channel configuration : LFE

Text #1
ID : 3
Format : UTF-8
Codec ID : S_TEXT/UTF8
Codec ID/Info : UTF-8 Plain Text
Duration : 1 h 37 min
Bit rate : 30 b/s
Frame rate : 0.142 FPS
Count of elements : 826
Stream size : 21.8 KiB (0%)
Language : English
Default : Yes
Forced : No

Text #2
ID : 4
Format : UTF-8
Codec ID : S_TEXT/UTF8
Codec ID/Info : UTF-8 Plain Text
Duration : 1 h 37 min
Bit rate : 39 b/s
Frame rate : 0.188 FPS
Count of elements : 1101
Stream size : 28.0 KiB (0%)
Title : SDH
Language : English
Default : No
Forced : No

资源速度为零或资源敏感被和谐时,推荐使用qBittorrent等下载软件,有条件的推荐115更好的下载软件!

下载地址:


游客,如果您要查看本帖隐藏内容请回复

游客,如果您要查看本帖隐藏内容请回复

游客,如果您要查看本帖隐藏内容请回复

游客,如果您要查看本帖隐藏内容请回复





上一篇:余波 / Aftershock‎ (2022) 4K高清版本下载
下一篇:宽恕 / The Forgiven (2021) 4K高清版本下载
回复

使用道具 举报

1

主题

1424

帖子

4116

积分

4K家园VIP

Rank: 9Rank: 9Rank: 9

积分
4116
发表于 2022-7-19 21:04:38 | 显示全部楼层
4K家园资源最近貌似越来越多了
回复 支持 反对

使用道具 举报

0

主题

6

帖子

38

积分

新手上路

Rank: 1

积分
38
发表于 2022-7-19 23:31:10 | 显示全部楼层
2222222222222222
回复 支持 反对

使用道具 举报

0

主题

3

帖子

29

积分

新手上路

Rank: 1

积分
29
发表于 2022-7-20 08:08:24 | 显示全部楼层
看一下要不要收费的
回复 支持 反对

使用道具 举报

0

主题

8321

帖子

1万

积分

4K家园VIP

Rank: 9Rank: 9Rank: 9

积分
19318
发表于 2022-7-20 09:33:21 | 显示全部楼层
太好啦&萬分感謝版主的無私發佈分享%
回复 支持 反对

使用道具 举报

0

主题

426

帖子

2601

积分

注册会员

Rank: 2

积分
2601
发表于 2022-7-20 14:17:33 | 显示全部楼层
开心开心
回复

使用道具 举报

0

主题

4

帖子

43

积分

新手上路

Rank: 1

积分
43
发表于 2022-7-20 17:36:03 | 显示全部楼层
萬分感謝版主的無私發佈分享
回复 支持 反对

使用道具 举报

1

主题

1331

帖子

3877

积分

4K家园VIP

Rank: 9Rank: 9Rank: 9

积分
3877
发表于 2022-7-26 06:38:52 来自手机 | 显示全部楼层
看着好像不错
回复 支持 反对

使用道具 举报

1

主题

1247

帖子

3759

积分

4K家园VIP

Rank: 9Rank: 9Rank: 9

积分
3759
发表于 2022-7-28 15:06:51 | 显示全部楼层
我只是路过,不发表意见
回复 支持 反对

使用道具 举报

0

主题

1

帖子

6

积分

新手上路

Rank: 1

积分
6
发表于 2022-8-3 22:42:47 | 显示全部楼层
看看有没有合适的
回复 支持 反对

使用道具 举报

您需要登录后才可以回帖 登录 | 立即注册

本版积分规则

精彩图文
Archiver|手机版|TAG|Sitemap|新帖|专题|联系我们:邮箱: 4kjia.com@gmail.com   

4k家园   ©2019