[4K电影] 宽恕 / The Forgiven (2021) 4K高清版本下载

[复制链接]

2163

主题

2306

帖子

1万

积分

超级版主

Rank: 8Rank: 8

积分
16861
 楼主| 发表于 2022-7-19 21:13:40 | 显示全部楼层 |阅读模式
QQ图片20220719205956_副本.png

◎标  题 宽恕
◎片  名 The Forgiven
◎年  代 2021
◎产  地 英国
◎类  别 剧情
◎语  言 英语
◎上映日期 2021-09-11(多伦多电影节) / 2022-07-01(美国)
◎IMDb评分 6.3/10 from 373 users
◎IMDb链接 https://www.imdb.com/title/tt3696180/
◎豆瓣评分 0/10 from 0 users
◎豆瓣链接 https://movie.douban.com/subject/30213929/
◎片  长 117分钟
◎导  演 约翰·迈克尔·麦克唐纳 John Michael McDonagh
◎编  剧 约翰·迈克尔·麦克唐纳 John Michael McDonagh
◎演  员 杰西卡·查斯坦 Jessica Chastain
      拉尔夫·费因斯 Ralph Fiennes
      马特·史密斯 Matt Smith
      阿比·丽 Abbey Lee
      卡赖伯·兰德里·琼斯 Caleb Landry Jones
      阿历克斯·杰宁斯 Alex Jennings
      克里斯托弗·阿波特 Christopher Abbott
      玛丽-乔西·克罗兹 Marie-Josée Croze
      萨伊德·塔格马奥 Saïd Taghmaoui
      本·阿凡 Ben Affan
      阿卜杜拉赫·查基里 Abdellah Chakiri
      拉里·史密斯 Larry Smith
      基思·马登 Keith Madden



◎简  介


  本片改编自劳伦斯·奥斯本同名小说,小说故事描绘了在摩洛哥沙漠中,一对英国夫妇和当地人在一个豪华别墅的周末聚会上相遇的悲剧。
       伦敦有钱人大卫和乔·亨宁格(拉尔夫·费恩斯和杰西卡·查斯坦饰)驾车穿越摩洛哥沙漠,参加一位老朋友的奢华周末聚会,他们与当地一名十几岁的男孩发生了一起悲惨事故。这对夫妇很晚才抵达大别墅,放荡的派对正如火如荼,他们试图与当地警方勾结掩盖这一事件。但是,当男孩的父亲前来寻求正义时,一场充满紧张气氛的文化冲突就开始了。在这场冲突中,大卫和乔必须接受他们的宿命行为及其令人震惊的后果。

Video
ID : 1
Format : HEVC
Format/Info : High Efficiency Video Coding
Format profile : Main 10@L5@High
HDR format : SMPTE ST 2086, HDR10 compatible
Codec ID : V_MPEGH/ISO/HEVC
Duration : 1 h 56 min
Bit rate : 14.4 Mb/s
Width : 3 828 pixels
Height : 1 596 pixels
Display aspect ratio : 2.40:1
Frame rate mode : Constant
Frame rate : 23.976 FPS
Color space : YUV
Chroma subsampling : 4:2:0 (Type 2)
Bit depth : 10 bits
Bits/(Pixel*Frame) : 0.098
Stream size : 11.8 GiB (97%)
Default : Yes
Forced : No
Color range : Limited
Color primaries : BT.2020
Transfer characteristics : PQ
Matrix coefficients : BT.2020 non-constant
Mastering display color primaries : BT.2020
Mastering display luminance : min: 0.0001 cd/m2, max: 1000 cd/m2
Maximum Content Light Level : 1064 cd/m2
Maximum Frame-Average Light Level : 233 cd/m2

Audio
ID : 2
Format : AC-3
Format/Info : Audio Coding 3
Commercial name : Dolby Digital
Codec ID : A_AC3
Duration : 1 h 56 min
Bit rate mode : Constant
Bit rate : 384 kb/s
Channel(s) : 6 channels
Channel layout : L R C LFE Ls Rs
Sampling rate : 48.0 kHz
Frame rate : 31.250 FPS (1536 SPF)
Compression mode : Lossy
Stream size : 321 MiB (3%)
Language : English
Service kind : Complete Main
Default : Yes
Forced : No

Text #1
ID : 3
Format : UTF-8
Codec ID : S_TEXT/UTF8
Codec ID/Info : UTF-8 Plain Text
Duration : 1 h 54 min
Bit rate : 53 b/s
Frame rate : 0.197 FPS
Count of elements : 1350
Stream size : 44.4 KiB (0%)
Language : English
Default : Yes
Forced : No

Text #2
ID : 4
Format : UTF-8
Codec ID : S_TEXT/UTF8
Codec ID/Info : UTF-8 Plain Text
Duration : 1 h 56 min
Bit rate : 54 b/s
Frame rate : 0.209 FPS
Count of elements : 1457
Stream size : 46.6 KiB (0%)
Title : SDH
Language : English
Default : No
Forced : No


资源速度为零或资源敏感被和谐时,推荐使用qBittorrent等下载软件,有条件的推荐115更好的下载软件!

下载地址:


游客,如果您要查看本帖隐藏内容请回复


游客,如果您要查看本帖隐藏内容请回复







上一篇:男人 / Men (2022) 4K高清版本下载
下一篇:前妻俱乐部[简繁中字]/ The First Wives Club (2021) 4K高清版本下载
回复

使用道具 举报

38

主题

1494

帖子

4300

积分

4K家园VIP

Rank: 9Rank: 9Rank: 9

积分
4300
发表于 2022-7-19 21:13:44 | 显示全部楼层
我也是坐沙发的
回复 支持 反对

使用道具 举报

0

主题

1427

帖子

4101

积分

4K家园VIP

Rank: 9Rank: 9Rank: 9

积分
4101
发表于 2022-7-19 21:13:44 | 显示全部楼层
沙发???
回复 支持 反对

使用道具 举报

0

主题

3

帖子

29

积分

新手上路

Rank: 1

积分
29
发表于 2022-7-20 08:07:00 | 显示全部楼层
真心想要看一下
回复 支持 反对

使用道具 举报

0

主题

8337

帖子

1万

积分

4K家园VIP

Rank: 9Rank: 9Rank: 9

积分
19391
发表于 2022-7-20 09:34:03 | 显示全部楼层
太好啦&萬分感謝版主的無私發佈分享%
回复 支持 反对

使用道具 举报

0

主题

1

帖子

6

积分

新手上路

Rank: 1

积分
6
发表于 2022-7-21 00:16:44 | 显示全部楼层
太好啦&萬分感謝版主的無私發佈分享%
回复 支持 反对

使用道具 举报

4

主题

1319

帖子

3977

积分

4K家园VIP

Rank: 9Rank: 9Rank: 9

积分
3977
发表于 2022-7-21 05:32:05 | 显示全部楼层
珍爱生命,果断回帖。
回复 支持 反对

使用道具 举报

0

主题

3

帖子

87

积分

4K家园VIP

Rank: 9Rank: 9Rank: 9

积分
87
发表于 2022-7-23 14:53:48 | 显示全部楼层
读后感广告打得过
回复 支持 反对

使用道具 举报

1

主题

1377

帖子

4149

积分

4K家园VIP

Rank: 9Rank: 9Rank: 9

积分
4149
发表于 2022-7-24 01:22:02 来自手机 | 显示全部楼层
回复 支持 反对

使用道具 举报

201

主题

1748

帖子

4806

积分

4K家园VIP

Rank: 9Rank: 9Rank: 9

积分
4806
发表于 2022-7-26 00:33:25 | 显示全部楼层
小白一个 顶一下
回复 支持 反对

使用道具 举报

您需要登录后才可以回帖 登录 | 立即注册

本版积分规则

精彩图文
Archiver|手机版|TAG|Sitemap|新帖|专题|联系我们:邮箱: 4kjia.com@gmail.com   

4k家园   ©2019