[韩国4K MV] 樱桃子弹-Really Really [2160P/webm/368MB]

[复制链接]

394

主题

439

帖子

2867

积分

超级版主

Rank: 8Rank: 8

积分
2867
 楼主| 发表于 2019-5-26 20:59:30 | 显示全部楼层 |阅读模式

樱桃子弹-Really Really.webm_20190526_205045.788.jpg 樱桃子弹-Really Really.webm_20190526_205151.655.jpg 樱桃子弹-Really Really.webm_20190526_205210.438.jpg 樱桃子弹-Really Really.webm_20190526_205235.581.jpg 樱桃子弹-Really Really.webm_20190526_205322.870.jpg

General
Complete name                  :樱桃子弹-Really Really.webm
Format                         : WebM
Format version                 : Version 2
File size                      : 369 MiB
Duration                       : 3 min 17 s
Overall bit rate mode          : Variable
Overall bit rate               : 15.7 Mb/s
Writing application            : Lavf58.20.100
Writing library                : Lavf58.20.100

Video
ID                             : 1
Format                         : VP9
Codec ID                       : V_VP9
Duration                       : 3 min 17 s
Bit rate                       : 14.9 Mb/s
Width                          : 3 840 pixels
Height                         : 2 160 pixels
Display aspect ratio           : 16:9
Frame rate mode                : Constant
Frame rate                     : 23.976 (24000/1001) FPS
Color space                    : YUV
Bits/(Pixel*Frame)             : 0.075
Stream size                    : 351 MiB (95%)
Language                       : English
Default                        : Yes
Forced                         : No
Color range                    : Limited
Color primaries                : BT.709
Transfer characteristics       : BT.709
Matrix coefficients            : BT.709

Audio
ID                             : 2
Format                         : Vorbis
Format settings, Floor         : 1
Codec ID                       : A_VORBIS
Duration                       : 3 min 17 s
Bit rate mode                  : Variable
Bit rate                       : 128 kb/s
Channel(s)                     : 2 channels
Sampling rate                  : 44.1 kHz
Compression mode               : Lossy
Stream size                    : 3.01 MiB (1%)
Writing application            : Google
Language                       : English
Default                        : Yes
Forced                         : No



网盘下载失效不补:链接: https://pan.baidu.com/s/1PC25eQRYUZ4F34KaLN1nnA
****此区域为收费内容****    需支付 25 金币后可查看立即购买


s_18027172_1436852645569_c55.gif

上一篇:Avatar.2009.Extended.UHD.Re-Grade.4000nit.2160p.HEVC.HDR.IVA(RUS.UKR.ENG).ExK...
下一篇:[2019汉城汽车展]Pocket Girls-Lip & Hip 60fps [2160P/MP4/419MB]
回复

使用道具 举报

45

主题

1089

帖子

3051

积分

4K家园VIP

Rank: 9Rank: 9Rank: 9

积分
3051
发表于 2019-5-26 20:59:34 来自手机 | 显示全部楼层
楼猪V5啊
回复 支持 反对

使用道具 举报

0

主题

42

帖子

1639

积分

中级会员

Rank: 4

积分
1639
发表于 2019-5-27 09:40:38 | 显示全部楼层
楼主发贴辛苦了,谢谢楼主分享!我觉得来4K家园是注册对了!
回复 支持 反对

使用道具 举报

0

主题

16

帖子

39

积分

新手上路

Rank: 1

积分
39
发表于 2019-5-27 17:55:31 | 显示全部楼层
感谢分享。看看。这个很不错。
回复 支持 反对

使用道具 举报

34

主题

1086

帖子

3054

积分

4K家园VIP

Rank: 9Rank: 9Rank: 9

积分
3054
发表于 2019-5-28 06:30:16 来自手机 | 显示全部楼层
一直在看
回复 支持 反对

使用道具 举报

0

主题

945

帖子

2647

积分

4K家园VIP

Rank: 9Rank: 9Rank: 9

积分
2647
发表于 2019-5-28 08:53:17 来自手机 | 显示全部楼层
OMG!介是啥东东!!!
回复 支持 反对

使用道具 举报

0

主题

1012

帖子

2886

积分

4K家园VIP

Rank: 9Rank: 9Rank: 9

积分
2886
发表于 2019-5-28 18:14:15 | 显示全部楼层
怎么这么大,希望我电视能看啊
回复 支持 反对

使用道具 举报

0

主题

2

帖子

19

积分

新手上路

Rank: 1

积分
19
发表于 2019-5-29 04:24:38 | 显示全部楼层
@ssssssssssss(
回复 支持 反对

使用道具 举报

0

主题

1140

帖子

3020

积分

4K家园VIP

Rank: 9Rank: 9Rank: 9

积分
3020
发表于 2019-5-29 09:33:46 | 显示全部楼层
是爷们的娘们的都帮顶!大力支持
回复 支持 反对

使用道具 举报

0

主题

6

帖子

43

积分

新手上路

Rank: 1

积分
43
发表于 2019-5-30 07:03:19 来自手机 | 显示全部楼层
感谢分享
回复

使用道具 举报

您需要登录后才可以回帖 登录 | 立即注册

本版积分规则

精彩图文
关闭

站长推荐上一条 /2 下一条

4k家园   ©2019