[2019汉城汽车展]Pocket Girls-Lip & Hip 60fps [2160P/MP4/419MB]

[复制链接]

1095

主题

1236

帖子

7803

积分

超级版主

Rank: 8Rank: 8

积分
7803
 楼主| 发表于 2019-5-26 21:31:48 | 显示全部楼层 |阅读模式

QQ图片20190526212907_meitu_1.jpg [2019汉城汽车展]Pocket Girls-Lip & Hip.mkv_20190526_211925.611.jpg [2019汉城汽车展]Pocket Girls-Lip & Hip.mkv_20190526_212016.772.jpg [2019汉城汽车展]Pocket Girls-Lip & Hip.mkv_20190526_212026.574.jpg [2019汉城汽车展]Pocket Girls-Lip & Hip.mkv_20190526_212123.443.jpg [2019汉城汽车展]Pocket Girls-Lip & Hip.mkv_20190526_212158.684.jpg

General
Unique ID                      : 38086925764762293241215662066430474272 (0x1CA7466BC625C4089DD89C54F9617820)
Complete name                  : D:[2019汉城汽车展]Pocket Girls-Lip & Hip.mkv
Format                         : Matroska
Format version                 : Version 4
File size                      : 419 MiB
Duration                       : 2 min 21 s
Overall bit rate mode          : Variable
Overall bit rate               : 24.9 Mb/s
Writing application            : Lavf56.40.101
Writing library                : Lavf56.40.101

Video
ID                             : 1
Format                         : VP9
Codec ID                       : V_VP9
Duration                       : 2 min 21 s
Bit rate                       : 24.3 Mb/s
Width                          : 3 840 pixels
Height                         : 2 160 pixels
Display aspect ratio           : 16:9
Frame rate mode                : Variable
Stream size                    : 409 MiB (97%)
Default                        : Yes
Forced                         : No

Audio
ID                             : 2
Format                         : Vorbis
Format settings, Floor         : 1
Codec ID                       : A_VORBIS
Duration                       : 2 min 21 s
Bit rate mode                  : Variable
Bit rate                       : 128 kb/s
Channel(s)                     : 2 channels
Sampling rate                  : 44.1 kHz
Compression mode               : Lossy
Stream size                    : 2.16 MiB (1%)
Writing application            : Google
Default                        : Yes
Forced                         : No


网盘下载失效不补:链接: https://pan.baidu.com/s/12ETYR-e2cUNCQOihoJtLag
****此区域为收费内容****    需支付 25 金币后可查看立即购买

s_18027172_1436852645569_c55.gif

上一篇:[韩国4K MV] 樱桃子弹-Really Really [2160P/webm/368MB]
下一篇:[韩国4KMV] EVERGLOW- (Bon Bon Chocolat) [2160P/MKV/396MB]
回复

使用道具 举报

0

主题

935

帖子

2621

积分

4K家园VIP

Rank: 9Rank: 9Rank: 9

积分
2621
发表于 2019-5-26 21:31:58 | 显示全部楼层
没看懂
回复 支持 反对

使用道具 举报

60

主题

1098

帖子

3170

积分

4K家园VIP

Rank: 9Rank: 9Rank: 9

积分
3170
发表于 2019-5-27 16:59:47 | 显示全部楼层
哈哈,我只看看不说话
回复 支持 反对

使用道具 举报

0

主题

21

帖子

447

积分

新手上路

Rank: 1

积分
447
发表于 2019-5-27 23:50:13 | 显示全部楼层
有什么好啊
回复 支持 反对

使用道具 举报

0

主题

914

帖子

2556

积分

4K家园VIP

Rank: 9Rank: 9Rank: 9

积分
2556
发表于 2019-5-28 22:25:13 | 显示全部楼层
感谢推荐,确实不错
回复 支持 反对

使用道具 举报

0

主题

987

帖子

2825

积分

中级会员

Rank: 4

积分
2825
发表于 2019-5-29 19:47:49 | 显示全部楼层
正需要
回复 支持 反对

使用道具 举报

51

主题

1093

帖子

3143

积分

4K家园VIP

Rank: 9Rank: 9Rank: 9

积分
3143
发表于 2019-5-30 00:32:55 | 显示全部楼层
是爷们的娘们的都帮顶!大力支持
回复 支持 反对

使用道具 举报

0

主题

834

帖子

3527

积分

中级会员

Rank: 4

积分
3527
发表于 2019-6-1 00:22:41 | 显示全部楼层
楼主发贴辛苦了,谢谢楼主分享!我觉得来4K家园是注册对了!
回复 支持 反对

使用道具 举报

0

主题

7

帖子

47

积分

新手上路

Rank: 1

积分
47
发表于 2019-6-1 22:55:01 | 显示全部楼层

感谢分享
回复

使用道具 举报

0

主题

5

帖子

43

积分

新手上路

Rank: 1

积分
43
发表于 2019-6-9 07:15:31 | 显示全部楼层

既然你诚信诚意的推荐了,那我就勉为其难的看看吧!4K家园不走平凡路。
回复 支持 反对

使用道具 举报

您需要登录后才可以回帖 登录 | 立即注册

本版积分规则

精彩图文
关闭

站长推荐上一条 /1 下一条

4k家园   ©2019