[4K电影] 巨齿鲨崛起 / Megalodon Rising (2021) 4K高清版本下载

[复制链接]

2118

主题

2259

帖子

1万

积分

超级版主

Rank: 8Rank: 8

积分
16577
 楼主| 发表于 2022-7-22 23:16:09 | 显示全部楼层 |阅读模式
巨齿鲨崛起.png

◎译  名 巨齿鲨崛起/决战狂鲨
◎片  名 Megalodon Rising
◎年  代 2021
◎产  地 美国
◎类  别 动作
◎语  言 英语
◎上映日期 2021-08-27(美国)
◎IMDb评分 2.1/10 from 454 users
◎IMDb链接 https://www.imdb.com/title/tt15295912/
◎豆瓣评分 /10 from 0 users
◎豆瓣链接 https://movie.douban.com/subject/35579684/
◎片  长 83分钟
◎导  演 布赖恩·诺瓦克 Brian Nowak
◎编  剧 安德里亚·鲁斯 Andrea Ruth
◎主  演 汤姆·塞兹摩尔 Tom Sizemore
                   Wynter Eddins Wynter Eddins
                   奥尼尔 O'Shay Neal
                   伊西多罗·佩雷斯 Isidoro Perez
                   王战 Zhan Wang
                   李丽莎 Lisa Lee
                   克里斯·格兰特·文切尔 Chris Grant Wenchell
                   金一凡 Freda Yifan Jing
                   卢卡斯·查尔斯·斯塔福德 Lukas Charles Stafford
                   梅格·卡塞尔 Meg Cashel
                   埃里克·吉尔米特 Eric Guilmette
                   Elisa Menniti Elisa Menniti
                   马丁·陈 Martin Chan
                   Vincent Eclavea Jr. Vincent Eclavea Jr.
                   Adam He  Adam He
                   梅丽莎·比德利 Melissa Bidgoli
                   Landyn Lu  Landyn Lu
                   Rob LaColla Jr  Rob LaColla Jr



◎简  介

  当历史上最强大的水生捕食者回来时,被派去摧毁它的现代战舰舰队根本没有机会。

Video
ID : 1
Format : HEVC
Format/Info : High Efficiency Video Coding
Format profile : Main@L5@Main
Codec ID : V_MPEGH/ISO/HEVC
Duration : 1 h 23 min
Bit rate : 14.4 Mb/s
Width : 3 840 pixels
Height : 2 160 pixels
Display aspect ratio : 16:9
Frame rate mode : Constant
Frame rate : 23.976 (24000/1001) FPS
Color space : YUV
Chroma subsampling : 4:2:0
Bit depth : 8 bits
Bits/(Pixel*Frame) : 0.072
Stream size : 8.36 GiB (78%)
Writing library : x265 3.5hy:[Linux][GCC 7.5.0][64 bit] 8bit
Encoding settings : cpuid=1111039 / frame-threads=2 / wpp / no-pmode / no-pme / no-psnr / no-ssim / log-level=2 / input-csp=1 / input-res=3840x2160 / interlace=0 / total-frames=0 / level-idc=0 / high-tier=1 / uhd-bd=0 / ref=4 / no-allow-non-conformance / repeat-headers / annexb / aud / hrd / info / hash=0 / no-temporal-layers / no-open-gop / min-keyint=48 / keyint=48 / gop-lookahead=0 / bframes=4 / b-adapt=2 / b-pyramid / bframe-bias=0 / rc-lookahead=48 / lookahead-slices=4 / scenecut=0 / hist-scenecut=0 / radl=0 / no-splice / no-intra-refresh / ctu=64 / min-cu-size=8 / rect / no-amp / max-tu-size=32 / tu-inter-depth=1 / tu-intra-depth=1 / limit-tu=0 / rdoq-level=2 / dynamic-rd=0.00 / no-ssim-rd / signhide / no-tskip / nr-intra=100 / nr-inter=200 / no-constrained-intra / strong-intra-smoothing / max-merge=3 / limit-refs=3 / limit-modes / me=3 / subme=3 / merange=57 / temporal-mvp / no-frame-dup / no-hme / weightp / no-weightb / no-analyze-src-pics / deblock=0:0 / no-sao / no-sao-non-deblock / rd=4 / selective-sao=0 / no-early-skip / no-rskip / no-fast-intra / no-tskip-fast / no-cu-lossless / no-b-intra / no-splitrd-skip / rdpenalty=0 / psy-rd=0.00 / psy-rdoq=10.00 / no-rd-refine / no-lossless / cbqpoffs=0 / crqpoffs=0 / rc=abr / bitrate=15000 / qcomp=0.60 / qpstep=1 / stats-write=0 / stats-read=2 / cplxblur=20.0 / qblur=0.5 / vbv-maxrate=18000 / vbv-bufsize=12000 / vbv-init=0.6 / min-vbv-fullness=50.0 / max-vbv-fullness=80.0 / vbv-end=0.6 / vbv-end-fr-adj=0.0 / ipratio=1.10 / pbratio=1.00 / aq-mode=0 / aq-strength=0.00 / no-cutree / zone-count=0 / no-strict-cbr / qg-size=32 / rc-grain / qpmax=69 / qpmin=0 / const-vbv / sar=0 / overscan=0 / videoformat=5 / range=0 / colorprim=1 / transfer=1 / colormatrix=1 / chromaloc=0 / display-window=0 / cll=0,0 / min-luma=0 / max-luma=255 / log2-max-poc-lsb=8 / vui-timing-info / vui-hrd-info / no-concatenation / slices=1 / no-opt-qp-pps / no-opt-ref-list-length-pps / no-multi-pass-opt-rps / scenecut-bias=0.05 / hist-threshold=0.03 / no-opt-cu-delta-qp / no-aq-motion / no-hdr10 / no-hdr10-opt / no-dhdr10-opt / no-idr-recovery-sei / analysis-reuse-level=0 / analysis-save-reuse-level=0 / analysis-load-reuse-level=0 / scale-factor=0 / refine-intra=0 / refine-inter=0 / refine-mv=1 / refine-ctu-distortion=0 / no-limit-sao / ctu-info=0 / no-lowpass-dct / refine-analysis-type=0 / copy-pic=1 / max-ausize-factor=1.0 / no-dynamic-refine / no-single-sei / no-hevc-aq / no-svt / no-field / qp-adaptation-range=1.00 / scenecut-aware-qp=0conformance-window-offsets / right=0 / bottom=0 / decoder-max-rate=0 / no-vbv-live-multi-pass
Language : English
Default : Yes
Forced : No
Color range : Limited
Color primaries : BT.709
Transfer characteristics : BT.709
Matrix coefficients : BT.709

Audio #1
ID : 2
Format : DTS XLL
Format/Info : Digital Theater Systems
Commercial name : DTS-HD Master Audio
Codec ID : A_DTS
Duration : 1 h 23 min
Bit rate mode : Variable
Bit rate : 3 650 kb/s
Channel(s) : 6 channels
Channel layout : C L R Ls Rs LFE
Sampling rate : 48.0 kHz
Frame rate : 93.750 FPS (512 SPF)
Bit depth : 24 bits
Compression mode : Lossless
Delay relative to video : 5 ms
Stream size : 2.12 GiB (20%)
Title : DTS-HD MA 5.1
Language : English
Default : Yes
Forced : No

Audio #2
ID : 3
Format : AC-3
Format/Info : Audio Coding 3
Commercial name : Dolby Digital
Codec ID : A_AC3
Duration : 1 h 23 min
Bit rate mode : Constant
Bit rate : 384 kb/s
Channel(s) : 6 channels
Channel layout : L R C LFE Ls Rs
Sampling rate : 48.0 kHz
Frame rate : 31.250 FPS (1536 SPF)
Compression mode : Lossy
Stream size : 228 MiB (2%)
Title : DD 5.1
Language : English
Service kind : Complete Main
Default : No
Forced : No

Text #1
ID : 4
Format : UTF-8
Codec ID : S_TEXT/UTF8
Codec ID/Info : UTF-8 Plain Text
Duration : 1 h 18 min
Bit rate : 73 b/s
Frame rate : 0.288 FPS
Count of elements : 1360
Stream size : 42.1 KiB (0%)
Language : English
Default : Yes
Forced : No

Text #2
ID : 5
Format : PGS
Muxing mode : zlib
Codec ID : S_HDMV/PGS
Codec ID/Info : Picture based subtitle format used on BDs/HD-DVDs
Duration : 1 h 9 min
Bit rate : 1 233 b/s
Frame rate : 0.019 FPS
Count of elements : 78
Stream size : 627 KiB (0%)
Language : English
Default : No
Forced : Yes

Menu
00:00:00.000 : en:Chapter 1
00:09:45.418 : en:Chapter 2
00:19:47.103 : en:Chapter 3
00:29:59.297 : en:Chapter 4
00:40:26.466 : en:Chapter 5
00:49:32.511 : en:Chapter 6
01:00:19.908 : en:Chapter 7
01:09:25.787 : en:Chapter 8
01:19:50.786 : en:Chapter 9

资源速度为零或资源敏感被和谐时,推荐使用qBittorrent等下载软件,有条件的推荐115更好的下载软件!

下载地址:


游客,如果您要查看本帖隐藏内容请回复





上一篇:在内心深处:得克萨斯州野生动物故事 (2022) 4K高清版本下载
下一篇:绝杀慕尼黑 / Dvizhenie vverkh (2017) 4K高清版本下载
回复

使用道具 举报

2

主题

1314

帖子

3960

积分

4K家园VIP

Rank: 9Rank: 9Rank: 9

积分
3960
发表于 2022-7-22 23:16:13 | 显示全部楼层
向楼主学习
回复 支持 反对

使用道具 举报

2

主题

1422

帖子

4284

积分

4K家园VIP

Rank: 9Rank: 9Rank: 9

积分
4284
发表于 2022-7-22 23:16:15 来自手机 | 显示全部楼层
撸过
回复 支持 反对

使用道具 举报

0

主题

4

帖子

140

积分

新手上路

Rank: 1

积分
140
发表于 2022-7-22 23:45:22 | 显示全部楼层
评分2.1,估计是大烂片
回复 支持 反对

使用道具 举报

0

主题

5

帖子

24

积分

新手上路

Rank: 1

积分
24
发表于 2022-7-23 07:25:01 | 显示全部楼层
想楼主学习,谢谢分享
回复 支持 反对

使用道具 举报

0

主题

17

帖子

360

积分

新手上路

Rank: 1

积分
360
发表于 2022-7-23 13:46:44 | 显示全部楼层
收藏下载了。。
回复 支持 反对

使用道具 举报

0

主题

426

帖子

2601

积分

注册会员

Rank: 2

积分
2601
发表于 2022-7-23 17:30:37 | 显示全部楼层
楼主,谢谢分享
回复 支持 反对

使用道具 举报

0

主题

1

帖子

10

积分

新手上路

Rank: 1

积分
10
发表于 2022-7-23 23:47:17 | 显示全部楼层
看看
回复

使用道具 举报

0

主题

5

帖子

57

积分

4K家园VIP

Rank: 9Rank: 9Rank: 9

积分
57
发表于 2022-7-23 23:52:45 | 显示全部楼层
哈哈哈哈
回复

使用道具 举报

0

主题

2

帖子

9

积分

新手上路

Rank: 1

积分
9
发表于 2022-7-25 12:49:13 | 显示全部楼层
5559koojk
回复

使用道具 举报

您需要登录后才可以回帖 登录 | 立即注册

本版积分规则

精彩图文
Archiver|手机版|TAG|Sitemap|新帖|专题|联系我们:邮箱: 4kjia.com@gmail.com   

4k家园   ©2019