美国众神 / American.Gods (2016) 第一至三季全/ 4K高清版本下载

[复制链接]

194

主题

217

帖子

2109

积分

版主

Rank: 7Rank: 7Rank: 7

积分
2109
 楼主| 发表于 2022-7-23 11:49:16 | 显示全部楼层 |阅读模式
p2434009366_副本.jpg

◎译  名 美国众神 第一季 / 美国神祗
◎片  名 American Gods Season 1
◎年  代 2017
◎产  地 美国
◎类  别 剧情 / 悬疑 / 奇幻
◎语  言 英语
◎上映日期 2017-04-30(美国)
◎IMDb评分 7.7/10 from 85061 users
◎IMDb链接 http://www.imdb.com/title/tt1898069
◎豆瓣评分 7.7/10 from 27965 users
◎豆瓣链接 https://movie.douban.com/subject/6308210/
◎集  数 8
◎片  长 60分钟
◎导  演 大卫·斯雷德 David Slade / 克雷格·卓贝 Craig Zobel / 文森佐·纳塔利 Vincenzo Natali / 亚当·肯恩 Adam Kane / 弗洛莉娅·塞吉斯蒙迪 Floria Sigismondi
◎编  剧 布莱恩·福勒 Bryan Fuller / 迈克尔·格林 Michael Green / 尼尔·盖曼 Neil Gaiman
◎主  演 瑞奇·惠特尔 Ricky Whittle
       艾米莉·布朗宁 Emily Browning
       布鲁斯·兰利 Bruce Langley
       叶缇黛·拜达克 Yetide Badaki
       巴勃罗·施瑞博尔 Pablo Schreiber
       伊恩·麦柯肖恩 Ian McShane
       克里斯平·格洛弗 Crispin Glover
       戴摩·巴恩斯 Demore Barnes
       克劳斯·利特曼 Cloris Leachman
       彼得·斯特曼 Peter Stormare
       吉莲·安德森 Gillian Anderson
       克里斯汀·肯诺恩斯 Kristin Chenoweth
       奥兰多·琼斯 Orlando Jones
       奥米德·阿布塔西 Omid Abtahi
       查尔斯·欧比 Chris Obi
       穆萨·克拉许 Mousa Kraish


◎简  介  

  《美国众神》主要讲述了新神和旧神之间一场正在酝酿的战争:神话中传统的神开始逐渐失去了自己的信徒,转而去信仰一些新崛起的新神,新神反映了当前社会对金钱、科技、现代媒体、名人名流和药物毒品的贪恋。剧中主要描写Mr. Wednesday(Ian McShane饰),一个狡猾而魅力无穷的骗子,充满了邪恶的智慧、令人好奇的魔法以及宏伟的抱负。他雇佣有诈骗前科的Shadow Moon(Ricky Whittle饰)作为贴身保镖伴游美国,用他个人魅力到处招兵买马为最终的新旧神之间的战争做准备。

◎获奖情况  

  第22届美国艺术指导工会奖(2018)
  电视奖 最佳1小时单镜头当代剧艺术指导(提名)

  第8届美国评论家选择电视奖(2018)
  剧情类最佳剧集(提名)
  剧情类最佳男主角(提名) 伊恩·麦柯肖恩
  剧情类最佳女配角(提名) 吉莲·安德森

  第22届金卫星奖(2018)
  电视部门 最佳剧集-通类(提名)





p2541841655_副本.jpg

◎译  名 美国众神 第二季 / 美国神祗
◎片  名 American Gods Season 2
◎年  代 2019
◎产  地 美国
◎类  别 剧情 / 悬疑 / 奇幻
◎语  言 英语
◎上映日期 2019-03-10(美国)
◎IMDb评分 7.7/10 from 85061 users
◎IMDb链接 http://www.imdb.com/title/tt6878304
◎豆瓣评分 7.0/10 from 8642 users
◎豆瓣链接 https://douban.com/subject/33384881/

◎集  数 8
◎片  长 60分钟
◎导  演 克里斯·拜恩 Chris Byrne
◎主  演 瑞奇·惠特尔 Ricky Whittle
       伊恩·麦柯肖恩 Ian McShane
       艾米莉·布朗宁 Emily Browning
       奥米德·阿布塔西 Omid Abtahi
       叶缇黛·拜达克 Yetide Badaki
       克里斯平·格洛弗 Crispin Glover
       奥兰多·琼斯 Orlando Jones
       卡云·金 Kahyun Kim
       穆萨·克拉许 Mousa Kraish
       布鲁斯·兰利 Bruce Langley
       巴勃罗·施瑞博尔 Pablo Schreiber
       德芙丽·雅各布斯 Devery Jacobs
       迪恩·文特斯 Dean Winters


◎简  介  

  经过漫长的等待和层出不穷的麻烦事,长度为八集的第二季终将播出。Ricky Whittle继续扮演主人公影月(Shadow Moon),Ian McShane继续扮演星期三先生,他们在旧神与新神的战争中起着举足轻重的作用。旧神来自神话传说,但他们已经丧失了大部分信徒。新神因现代人类对金钱、科技、媒体、名人和毒品的崇拜而爆发,成了不可一世的神界贵族。人是神的造物,但人也改变了神界。在第二季中,旧神与新神的战争愈发残酷,已经到了无法逆转的临界点,人类深陷双方的交火地带。世界先生发誓要让那些胆敢攻击他的人付出沉痛代价,影子则注定要陪伴星期三先生劝说旧神团结起来面对全面战争——但前提是他们相信全面战争的存在。现在影子知道了星期三先生的真实身份,Laura和Mad Sweeney无奈只有跟随两人一起行动。威斯康辛州斯普林格林「岩上之屋」(House on the Rock)的理事会陷入混乱,旧神和新神纷纷动身穿越美国并在伊利诺伊州的开罗重聚。影子觉得这个众神活跃的新世界真是太奇怪了,他不仅要强迫自己成为一个信徒,还要尽快确定自己在这个世界中的位置。这将是一个非常黑暗的世界,任何改变都将伴随着新的承诺,任何信仰都离不开可怕的牺牲。



p2627622701_副本.jpg

◎译  名 美国众神 第三季/美国神祗
◎片  名 American Gods Season 3
◎年  代 2021
◎产  地 美国
◎类  别 剧情/悬疑/奇幻
◎语  言 英语
◎上映日期 2021-01-10(美国)
◎IMDb评分 7.7/10 from 85061 users
◎IMDb链接 http://www.imdb.com/title/tt6878304

◎豆瓣评分 7.3/10 from 2974 users
◎豆瓣链接 https://douban.com/subject/33384881/
◎集  数 10
◎片  长 60分钟
◎编  剧 查尔斯·H·伊格里 Charles H. Eglee / 尼尔·盖曼 Neil Gaiman
◎主  演 瑞奇·惠特尔 Ricky Whittle
       伊恩·麦柯肖恩 Ian McShane
       艾米莉·布朗宁 Emily Browning
       克里斯平·格洛弗 Crispin Glover
       奥米德·阿布塔西 Omid Abtahi
       叶缇黛·拜达克 Yetide Badaki
       戴摩·巴恩斯 Demore Barnes
       伊万·瑞恩 Iwan Rheon
       布莱思·丹纳 Blythe Danner
       奥兰多·琼斯 Orlando Jones
       穆萨·克拉许 Mousa Kraish
       布鲁斯·兰利 Bruce Langley
       玛丽莲·曼森 Marilyn Manson
       巴勃罗·施瑞博尔 Pablo Schreiber
       埃里克·约翰逊 Eric Johnson
       多米尼克·杰克逊 Dominique Jackson


◎简  介


  历经数年牢狱之灾,影子(瑞奇·惠特尔 Ricky Whittle 饰)终于迎来重获自由的时刻,可是他并不因此而快乐。妻子劳拉(艾米莉·布朗宁 Emily meijubar.net Browning 饰)数日前死于车祸,回家路上又遭遇自称“星期三”(伊恩·麦柯肖恩 Ian McShane 饰)的男人的不断纠缠。最终,影子受雇于星期三,成为对方的保镖。原来星期三的真实身份是北欧之神奥丁,由于现代文明的飞速发展,古老的神祇渐渐被人遗忘,而以手枪、毒品、娱乐为代表的新神迅速崛起。后者无所不用其极想将旧神驱逐,而奥丁作为旧神的代表则四处寻找伙伴,对抗新神的欺凌。繁华时代,神与神的战争拉开序幕……

  本片根据尼尔•盖曼的同名原作改编。

Video
ID : 1
Format : HEVC
Format/Info : High Efficiency Video Coding
Format profile : Main@L5@Main
Codec ID : V_MPEGH/ISO/HEVC
Duration : 1 h 2 min
Bit rate : 12.8 Mb/s
Width : 3 840 pixels
Height : 2 160 pixels
Display aspect ratio : 16:9
Frame rate mode : Constant
Frame rate : 23.976 (24000/1001) FPS
Standard : NTSC
Color space : YUV
Chroma subsampling : 4:2:0
Bit depth : 8 bits
Bits/(Pixel*Frame) : 0.065
Stream size : 5.62 GiB (95%)
Writing library : x265 2.9_elemental+1-9e0607aa5b6f:[Linux][GCC 4.8.5][64 bit] 8bit+10bit+12bit
Encoding settings : cpuid=1111039 / frame-threads=2 / wpp / no-pmode / no-pme / psnr / ssim / log-level=2 / csv / csv-log-level=2 / input-csp=1 / input-res=3840x2160 / interlace=0 / total-frames=0 / level-idc=50 / high-tier=1 / uhd-bd=0 / ref=5 / no-allow-non-conformance / no-repeat-headers / annexb / no-aud / no-hrd / info / hash=0 / no-temporal-layers / no-open-gop / min-keyint=61 / keyint=120 / gop-lookahead=0 / bframes=8 / b-adapt=2 / b-pyramid / bframe-bias=0 / rc-lookahead=120 / lookahead-slices=4 / scenecut=0 / radl=0 / no-intra-refresh / ctu=64 / min-cu-size=8 / rect / amp / max-tu-size=32 / tu-inter-depth=4 / tu-intra-depth=4 / limit-tu=4 / rdoq-level=2 / dynamic-rd=0.00 / no-ssim-rd / signhide / tskip / nr-intra=100 / nr-inter=600 / no-constrained-intra / strong-intra-smoothing / max-merge=3 / limit-refs=3 / limit-modes / me=3 / subme=3 / merange=57 / temporal-mvp / weightp / weightb / no-analyze-src-pics / deblock=0:0 / no-sao / no-sao-non-deblock / rd=4 / no-early-skip / no-rskip / no-fast-intra / tskip-fast / no-cu-lossless / b-intra / no-splitrd-skip / rdpenalty=0 / psy-rd=4.00 / psy-rdoq=10.00 / no-rd-refine / no-lossless / cbqpoffs=0 / crqpoffs=0 / rc=crf / crf=25.0 / qcomp=0.60 / qpstep=1 / stats-write=0 / stats-read=0 / vbv-maxrate=15000 / vbv-bufsize=20000 / vbv-init=0.9 / crf-max=0.0 / crf-min=0.0 / ipratio=1.10 / pbratio=1.00 / aq-mode=0 / aq-strength=1.50 / no-cutree / zone-count=0 / no-strict-cbr / qg-size=32 / rc-grain / qpmax=69 / qpmin=0 / const-vbv / sar=1 / overscan=0 / videoformat=2 / range=0 / colorprim=1 / transfer=1 / colormatrix=1 / chromaloc=0 / display-window=0 / max-cll=0,0 / min-luma=0 / max-luma=255 / log2-max-poc-lsb=8 / vui-timing-info / vui-hrd-info / slices=1 / opt-qp-pps / no-opt-ref-list-length-pps / no-multi-pass-opt-rps / scenecut-bias=0.05 / no-opt-cu-delta-qp / no-aq-motion / no-hdr / no-hdr-opt / no-dhdr10-opt / no-idr-recovery-sei / analysis-reuse-level=5 / scale-factor=0 / refine-intra=0 / refine-inter=0 / refine-mv=0 / no-limit-sao / ctu-info=0 / no-lowpass-dct / refine-mv-type=0 / copy-pic=1 / max-ausize-factor=1.0 / no-dynamic-refine / no-single-sei
Default : Yes
Forced : No
Color range : Limited
Color primaries : BT.709
Transfer characteristics : BT.709
Matrix coefficients : BT.709

Audio
ID : 2
Format : E-AC-3
Format/Info : Enhanced AC-3
Commercial name : Dolby Digital Plus
Codec ID : A_EAC3
Duration : 1 h 2 min
Bit rate mode : Constant
Bit rate : 640 kb/s
Channel(s) : 6 channels
Channel layout : L R C LFE Ls Rs
Sampling rate : 48.0 kHz
Frame rate : 31.250 FPS (1536 SPF)
Compression mode : Lossy
Stream size : 287 MiB (5%)
Language : English
Service kind : Complete Main
Default : Yes
Forced : No

Text
ID : 3
Format : UTF-8
Codec ID : S_TEXT/UTF8
Codec ID/Info : UTF-8 Plain Text
Duration : 1 h 2 min
Bit rate : 53 b/s
Frame rate : 0.244 FPS
Count of elements : 914
Stream size : 24.6 KiB (0%)
Title : [CC]
Language : English
Default : Yes
Forced : No
下载地址:

游客,如果您要查看本帖隐藏内容请回复

游客,如果您要查看本帖隐藏内容请回复

游客,如果您要查看本帖隐藏内容请回复





上一篇:路西法 [简繁中字] /Lucifer (2017) 第六季全10集/4K高清版本下载
下一篇:路西法 [简繁中字] (2016-2021) 第四至六季全 / 4K高清版本下载
回复

使用道具 举报

8

主题

1178

帖子

3502

积分

4K家园VIP

Rank: 9Rank: 9Rank: 9

积分
3502
发表于 2022-7-23 11:49:44 | 显示全部楼层
元芳你怎么看?
回复 支持 反对

使用道具 举报

3

主题

1310

帖子

3952

积分

4K家园VIP

Rank: 9Rank: 9Rank: 9

积分
3952
发表于 2022-7-23 12:49:09 | 显示全部楼层
啊啊啊啊啊啊啊啊啊啊啊
回复 支持 反对

使用道具 举报

44

主题

1531

帖子

4411

积分

4K家园VIP

Rank: 9Rank: 9Rank: 9

积分
4411
发表于 2022-7-23 13:36:16 | 显示全部楼层
在撸一遍。。。
回复 支持 反对

使用道具 举报

2

主题

1185

帖子

3575

积分

4K家园VIP

Rank: 9Rank: 9Rank: 9

积分
3575
发表于 2022-7-23 13:55:09 | 显示全部楼层
在撸一遍。。。
回复 支持 反对

使用道具 举报

0

主题

1465

帖子

4209

积分

4K家园VIP

Rank: 9Rank: 9Rank: 9

积分
4209
发表于 2022-7-23 14:03:18 | 显示全部楼层
我是个凑数的。。。
回复 支持 反对

使用道具 举报

0

主题

3

帖子

29

积分

新手上路

Rank: 1

积分
29
发表于 2022-7-23 19:10:33 | 显示全部楼层
谢谢楼主
回复

使用道具 举报

您需要登录后才可以回帖 登录 | 立即注册

本版积分规则

精彩图文
Archiver|手机版|TAG|Sitemap|新帖|专题|联系我们:邮箱: 4kjia.com@gmail.com   

4k家园   ©2019