[4K电影] 致命诱惑 / Fatal Attraction (1987) 4K高清版本下载

[复制链接]

主题

帖子

0

积分

超级版主

Rank: 8Rank: 8

积分
0
 楼主| 发表于 2022-7-24 10:36:15 | 显示全部楼层 |阅读模式
本帖最后由 最爱4K哟 于 2022-7-24 11:07 编辑

101050h7708792pqh77570.png

◎译  名 致命诱惑/Affairs of the Heart/孽缘(港)/致命的吸引力(台 )/致命的诱惑
◎片  名 Fatal Attraction
◎年  代 1987
◎产  地 美国
◎类  别 剧情 / 惊悚
◎语  言 英语
◎上映日期 1987-09-18
◎IMDb评分 6.9/10 from 85602 users
◎IMDb链接 https://www.imdb.com/title/tt0093010/
◎豆瓣评分 7.0/10 from 4955 users
◎豆瓣链接 https://movie.douban.com/subject/1294587/
◎片  长 119 分钟
◎导  演 阿德里安·莱恩 Adrian Lyne
◎编  剧 詹姆斯·迪尔登 James Dearden
◎主  演 迈克尔·道格拉斯 Michael Douglas
      格伦·克洛斯 Glenn Close
      安妮·阿彻 Anne Archer
      艾伦.汉密尔顿.尼森 Ellen Hamilton Latzen
      简·科拉克斯基 Jane Krakowski
      詹姆斯·埃克豪斯 James Eckhouse
        安娜·莱文 Anna Levine
      乔纳森·布兰戴斯 Jonathan Brandis
      迈克·努斯鲍姆 Mike Nussbaum
      弗雷德·格温 Fred Gwynne
      罗伊丝·史密斯 Lois Smith
      艾伦·弗雷 Ellen Foley
      斯图尔特·潘金 Stuart Pankin


◎简  介

  丹(迈克尔·道格拉斯 Michael Douglas 饰)拥有着人人羡慕的幸福家庭,他和妻子贝丝(安妮·阿彻 Anne Archer 饰)之间的感情稳固而又长久,女儿艾伦(Ellen Hamilton Latzen 饰)更是机灵可爱。一次偶然中,不只是鬼迷心窍还是怎地, 丹竟然和一个名叫艾利克斯(格伦·克洛斯 Glenn Close 饰)的女人有了一段露水情缘,回家后面对妻儿,丹的内心充满了愧疚,他暗暗发誓,绝不让背叛再度发生。

  可惜艾利克斯并不同意但的看法,表面上,她是一个成熟稳重的知性派,可骨子里,艾利克斯却拥有着超越常人的偏执和固执,为了满足自己的私欲,她不断的骚扰着丹及其家庭,很快,这种骚扰变升级成为了犯罪。面对来势汹汹的艾利克斯,丹会选择怎样的对策来保护他的家庭呢?

◎获奖情况

  第60届奥斯卡金像奖 ?(1988)
  最佳影片(提名) 雪莉·兰辛?/?斯坦利·R·贾菲
  最佳导演(提名) 阿德里安·莱恩
  最佳女主角(提名) 格伦·克洛斯
  最佳女配角(提名) 安妮·阿彻
  最佳改编剧本(提名) 詹姆斯·迪尔登
  最佳剪辑(提名) 迈克尔·卡恩?/?彼得·E·伯格

  第12届日本电影学院奖 ?(1989)
  最佳外语片(提名)

Video
ID : 1
Format : HEVC
Format/Info : High Efficiency Video Coding
Format profile : Main 10@L5@High
HDR format : Dolby Vision, Version 1.0, dvhe.05.06, BL+RPU
Codec ID : V_MPEGH/ISO/HEVC
Duration : 1 h 59 min
Bit rate : 24.4 Mb/s
Width : 3 840 pixels
Height : 2 160 pixels
Display aspect ratio : 16:9
Frame rate mode : Constant
Frame rate : 23.976 (24000/1001) FPS
Color space : YUV
Chroma subsampling : 4:2:0
Bit depth : 10 bits
Bits/(Pixel*Frame) : 0.123
Stream size : 20.4 GiB (77%)
Default : Yes
Forced : No

Audio #1
ID : 2
Format : MLP FBA
Format/Info : Meridian Lossless Packing FBA
Commercial name : Dolby TrueHD
Codec ID : A_TRUEHD
Duration : 1 h 59 min
Bit rate mode : Variable
Bit rate : 3 127 kb/s
Maximum bit rate : 4 437 kb/s
Channel(s) : 6 channels
Channel layout : L R C LFE Ls Rs
Sampling rate : 48.0 kHz
Frame rate : 1 200.000 FPS (40 SPF)
Compression mode : Lossless
Stream size : 2.61 GiB (10%)
Title : TrueHD 5.1
Language : English
Default : Yes
Forced : No

Audio #2
ID : 3
Format : DTS XLL
Format/Info : Digital Theater Systems
Commercial name : DTS-HD Master Audio
Codec ID : A_DTS
Duration : 1 h 59 min
Bit rate mode : Variable
Bit rate : 3 539 kb/s
Channel(s) : 6 channels
Channel layout : C L R Ls Rs LFE
Sampling rate : 48.0 kHz
Frame rate : 93.750 FPS (512 SPF)
Bit depth : 24 bits
Compression mode : Lossless
Stream size : 2.95 GiB (11%)
Title : DTS-HD MA 5.1
Language : English
Default : No
Forced : No

Audio #3
ID : 4
Format : AC-3
Format/Info : Audio Coding 3
Commercial name : Dolby Digital
Codec ID : A_AC3
Duration : 1 h 59 min
Bit rate mode : Constant
Bit rate : 640 kb/s
Channel(s) : 6 channels
Channel layout : L R C LFE Ls Rs
Sampling rate : 48.0 kHz
Frame rate : 31.250 FPS (1536 SPF)
Compression mode : Lossy
Stream size : 547 MiB (2%)
Title : DD 5.1
Language : English
Service kind : Complete Main
Default : No
Forced : No

Text #1
ID : 5
Format : UTF-8
Codec ID : S_TEXT/UTF8
Codec ID/Info : UTF-8 Plain Text
Duration : 1 h 50 min
Bit rate : 42 b/s
Frame rate : 0.154 FPS
Count of elements : 1024
Stream size : 34.0 KiB (0%)
Language : English
Default : Yes
Forced : No

Text #2
ID : 6
Format : UTF-8
Codec ID : S_TEXT/UTF8
Codec ID/Info : UTF-8 Plain Text
Duration : 1 h 52 min
Bit rate : 53 b/s
Frame rate : 0.205 FPS
Count of elements : 1386
Stream size : 44.1 KiB (0%)
Title : SDH
Language : English
Default : No
Forced : No

Text #3
ID : 7
Format : UTF-8
Codec ID : S_TEXT/UTF8
Codec ID/Info : UTF-8 Plain Text
Duration : 1 h 51 min
Bit rate : 38 b/s
Frame rate : 0.141 FPS
Count of elements : 949
Stream size : 31.2 KiB (0%)
Title : French European
Language : French
Default : No
Forced : No

Menu
00:00:00.000 : en:Chapter 01
00:01:59.452 : en:Chapter 02
00:12:34.129 : en:Chapter 03
00:16:53.471 : en:Chapter 04
00:21:46.639 : en:Chapter 05
00:25:59.601 : en:Chapter 06
00:40:25.133 : en:Chapter 07
00:55:06.973 : en:Chapter 08
00:59:47.337 : en:Chapter 09
01:13:42.589 : en:Chapter 10
01:16:10.403 : en:Chapter 11
01:25:48.148 : en:Chapter 12
01:28:31.061 : en:Chapter 13
01:35:27.644 : en:Chapter 14
01:40:53.428 : en:Chapter 15
01:46:04.322 : en:Chapter 16
01:55:20.420 : en:Chapter 17

资源速度为零或资源敏感被和谐时,推荐使用qBittorrent等下载软件,有条件的推荐115更好的下载软件!

下载地址:


游客,如果您要查看本帖隐藏内容请回复

游客,如果您要查看本帖隐藏内容请回复

游客,如果您要查看本帖隐藏内容请回复


相关其他4K高清版本链接:致命诱惑 / Fatal Attraction (1987) 4K高清版本下载/18.39GB




上一篇:绝杀慕尼黑 / Dvizhenie vverkh (2017) 4K高清版本下载
下一篇:闪电舞 / Flashdance (1983) 4K高清版本下载
回复

使用道具 举报

3

主题

1460

帖子

4206

积分

4K家园VIP

Rank: 9Rank: 9Rank: 9

积分
4206
发表于 2022-7-24 10:36:19 来自手机 | 显示全部楼层
1v1飘过
回复 支持 反对

使用道具 举报

2

主题

1406

帖子

4038

积分

4K家园VIP

Rank: 9Rank: 9Rank: 9

积分
4038
发表于 2022-7-24 10:44:55 来自手机 | 显示全部楼层
前排支持下
回复 支持 反对

使用道具 举报

1

主题

1364

帖子

3920

积分

4K家园VIP

Rank: 9Rank: 9Rank: 9

积分
3920
发表于 2022-7-24 11:03:18 | 显示全部楼层
秀起来~
回复 支持 反对

使用道具 举报

4

主题

1679

帖子

4637

积分

4K家园VIP

Rank: 9Rank: 9Rank: 9

积分
4637
发表于 2022-7-24 11:05:50 | 显示全部楼层
大人,此事必有蹊跷!
回复 支持 反对

使用道具 举报

1

主题

1465

帖子

4211

积分

4K家园VIP

Rank: 9Rank: 9Rank: 9

积分
4211
发表于 2022-7-24 11:06:45 | 显示全部楼层
我只是看看啊,不说话
回复 支持 反对

使用道具 举报

主题

帖子

0

积分

新手上路

Rank: 1

积分
0
发表于 2022-7-24 14:56:28 | 显示全部楼层
谢谢楼主分享
回复 支持 反对

使用道具 举报

0

主题

158

帖子

835

积分

4K家园VIP

Rank: 9Rank: 9Rank: 9

积分
835
发表于 2022-9-12 21:58:19 | 显示全部楼层
让 江小白 来看看帖子里藏了啥好东西~~~
回复 支持 反对

使用道具 举报

2

主题

1460

帖子

4232

积分

4K家园VIP

Rank: 9Rank: 9Rank: 9

积分
4232
发表于 2022-11-9 12:25:26 | 显示全部楼层
支持,赞一个
回复 支持 反对

使用道具 举报

2

主题

1393

帖子

4031

积分

4K家园VIP

Rank: 9Rank: 9Rank: 9

积分
4031
发表于 2022-11-9 13:43:29 | 显示全部楼层
我只是路过,不发表意见
回复 支持 反对

使用道具 举报

您需要登录后才可以回帖 登录 | 立即注册

本版积分规则

精彩图文
Archiver|手机版|TAG|Sitemap|新帖|专题|联系我们:邮箱: 4kjia.com@gmail.com   

4k家园   ©2019