[4K UHD 蓝光原盘] 上帝的使者 / The.Message (1976) 4K蓝光版本下载

[复制链接]

主题

帖子

0

积分

超级版主

Rank: 8Rank: 8

积分
0
 楼主| 发表于 2022-7-24 11:57:06 | 显示全部楼层 |阅读模式
QQ图片20220724113954_副本.png

◎标  题 上帝的使者
◎译  名 使命 / 上帝的使者:伊斯兰的故事 / 上帝的使者穆罕默德 / 迈哈麦德:上帝的使者 / The Message / Mohammad: Messenger of God
◎片  名 الرسالة
◎年  代 1976
◎产  地 英国 / 黎巴嫩 / 利比亚 / 科威特 / 摩洛哥
◎类  别 剧情 / 传记 / 历史 / 战争
◎语  言 英语 / 阿拉伯语
◎上映日期 1976-07-30(英国)
◎IMDb评分 8.1/10 from 47378 users
◎IMDb链接 https://www.imdb.com/title/tt0074896/
◎豆瓣评分 7.7/10 from 773 users
◎豆瓣链接 https://movie.douban.com/subject/1294339/
◎片  长 177 分钟
◎导  演 穆斯塔法·阿卡德 Moustapha Akkad
◎演  员 安东尼·奎恩 Anthony Quinn
       艾琳·帕帕斯 Irene Papas
       迈克尔·安萨拉 Michael Ansara
       约翰尼·塞卡 Johnny Sekka
       迈克尔·福瑞斯特 Michael Forest
       达米安·托马斯 Damien Thomas
       安德鲁·莫瑞尔 André Morell
       马丁·本森 Martin Benson
       罗伯特·布朗 Robert Brown
       罗莎莉·克拉切利 Rosalie Crutchley
       布鲁诺·巴纳比 Bruno Barnabe
       内维尔·杰森 Neville Jason
       约翰·贝内特 John Bennett
       唐纳德·伯顿 Donald Burton
       厄尔·卡梅伦 Earl Cameron
       尼古拉斯·阿米尔 Nicolas Amer
       加里克·哈根 Garrick Hagon
       约翰·布卢姆 John Bloom
       莫里斯·福勒 Maurice Fowler
       菲利斯·达尔顿 Phyllis Dalton
       埃伦·波义尔 Alan Boyle
       古斯·阿戈斯蒂 Gus Agosti


◎简  介


  加麦,七世纪,穆罕默德与城市的强权者们斗争着,他揭露他们的专横,以及它造成的疾病-奴隶制,暴力,酗酒,特别是,穆罕默德和他的信徒们鼓励人们忘却旧偶像,只崇拜唯一的真主,他们的对手毫不犹豫的迫害并折磨他们的近亲。然而,和平的穆斯林们明白,该为尊重自己的正义而奋战…

Video
ID : 1
Format : HEVC
Format/Info : High Efficiency Video Coding
Format profile : Main 10@L5.1@High
HDR format : SMPTE ST 2086, HDR10 compatible
Codec ID : V_MPEGH/ISO/HEVC
Duration : 2 h 58 min
Bit rate : 37.0 Mb/s
Width : 3 840 pixels
Height : 1 632 pixels
Display aspect ratio : 2.35:1
Frame rate mode : Constant
Frame rate : 24.000 FPS
Color space : YUV
Chroma subsampling : 4:2:0 (Type 2)
Bit depth : 10 bits
Bits/(Pixel*Frame) : 0.246
Stream size : 46.1 GiB (91%)
Writing library : x265 3.5+38-20255e6f0:[Windows][GCC 11.3.0][64 bit] 10bit
Encoding settings : cpuid=1176575 / frame-threads=5 / numa-pools=36 / wpp / no-pmode / no-pme / no-psnr / no-ssim / log-level=2 / input-csp=1 / input-res=3840x1632 / interlace=0 / total-frames=256768 / level-idc=51 / high-tier=1 / uhd-bd=0 / ref=4 / no-allow-non-conformance / repeat-headers / annexb / aud / no-eob / no-eos / hrd / info / hash=0 / no-temporal-layers / open-gop / min-keyint=24 / keyint=250 / gop-lookahead=0 / bframes=4 / b-adapt=2 / b-pyramid / bframe-bias=0 / rc-lookahead=25 / lookahead-slices=4 / scenecut=40 / no-hist-scenecut / radl=0 / no-splice / no-intra-refresh / ctu=64 / min-cu-size=8 / rect / no-amp / max-tu-size=32 / tu-inter-depth=1 / tu-intra-depth=1 / limit-tu=0 / rdoq-level=2 / dynamic-rd=0.00 / no-ssim-rd / signhide / no-tskip / nr-intra=0 / nr-inter=0 / no-constrained-intra / strong-intra-smoothing / max-merge=3 / limit-refs=3 / limit-modes / me=3 / subme=3 / merange=57 / temporal-mvp / no-frame-dup / no-hme / weightp / no-weightb / no-analyze-src-pics / deblock=-3:-3 / no-sao / no-sao-non-deblock / rd=4 / selective-sao=0 / no-early-skip / rskip / no-fast-intra / no-tskip-fast / no-cu-lossless / no-b-intra / no-splitrd-skip / rdpenalty=0 / psy-rd=2.00 / psy-rdoq=1.00 / no-rd-refine / no-lossless / cbqpoffs=0 / crqpoffs=0 / rc=crf / crf=17.8 / qcomp=0.60 / qpstep=4 / stats-write=0 / stats-read=0 / vbv-maxrate=160000 / vbv-bufsize=160000 / vbv-init=0.9 / min-vbv-fullness=50.0 / max-vbv-fullness=80.0 / crf-max=0.0 / crf-min=0.0 / ipratio=1.40 / pbratio=1.30 / aq-mode=2 / aq-strength=1.00 / cutree / zone-count=0 / no-strict-cbr / qg-size=32 / no-rc-grain / qpmax=69 / qpmin=0 / no-const-vbv / sar=1 / overscan=0 / videoformat=5 / range=0 / colorprim=9 / transfer=16 / colormatrix=9 / chromaloc=1 / chromaloc-top=2 / chromaloc-bottom=2 / display-window=0 / master-display=G(8500,39850)B(6550,2300)R(35400,14600)WP(15635,16450)L(10000000,1) / cll=351,212 / min-luma=0 / max-luma=1023 / log2-max-poc-lsb=8 / vui-timing-info / vui-hrd-info / slices=1 / no-opt-qp-pps / no-opt-ref-list-length-pps / no-multi-pass-opt-rps / scenecut-bias=0.05 / hist-threshold=0.03 / no-opt-cu-delta-qp / no-aq-motion / hdr10 / hdr10-opt / no-dhdr10-opt / no-idr-recovery-sei / analysis-reuse-level=0 / analysis-save-reuse-level=0 / analysis-load-reuse-level=0 / scale-factor=0 / refine-intra=0 / refine-inter=0 / refine-mv=1 / refine-ctu-distortion=0 / no-limit-sao / ctu-info=0 / no-lowpass-dct / refine-analysis-type=0 / copy-pic=1 / max-ausize-factor=1.0 / no-dynamic-refine / no-single-sei / no-hevc-aq / no-svt / no-field / qp-adaptation-range=1.00 / scenecut-aware-qp=0conformance-window-offsets / right=0 / bottom=0 / decoder-max-rate=0 / no-vbv-live-multi-pass
Default : Yes
Forced : No
Color range : Limited
Color primaries : BT.2020
Transfer characteristics : PQ
Matrix coefficients : BT.2020 non-constant
Mastering display color primaries : BT.2020
Mastering display luminance : min: 0.0001 cd/m2, max: 1000 cd/m2
Maximum Content Light Level : 351 cd/m2
Maximum Frame-Average Light Level : 212 cd/m2

Audio #1
ID : 2
Format : DTS XLL
Format/Info : Digital Theater Systems
Commercial name : DTS-HD Master Audio
Codec ID : A_DTS
Duration : 2 h 58 min
Bit rate mode : Variable
Bit rate : 3 593 kb/s
Channel(s) : 6 channels
Channel layout : C L R Ls Rs LFE
Sampling rate : 48.0 kHz
Frame rate : 93.750 FPS (512 SPF)
Bit depth : 24 bits
Compression mode : Lossless
Stream size : 4.47 GiB (9%)
Language : English
Default : Yes
Forced : No

Audio #2
ID : 3
Format : AAC LC
Format/Info : Advanced Audio Codec Low Complexity
Codec ID : A_AAC-2
Duration : 2 h 58 min
Bit rate : 113 kb/s
Channel(s) : 2 channels
Channel layout : L R
Sampling rate : 48.0 kHz
Frame rate : 46.875 FPS (1024 SPF)
Compression mode : Lossy
Delay relative to video : 9 ms
Stream size : 144 MiB (0%)
Title : Commentary
Language : English
Default : No
Forced : No

Text
ID : 4
Format : PGS
Muxing mode : zlib
Codec ID : S_HDMV/PGS
Codec ID/Info : Picture based subtitle format used on BDs/HD-DVDs
Duration : 2 h 57 min
Bit rate : 25.1 kb/s
Frame rate : 0.339 FPS
Count of elements : 3616
Stream size : 31.9 MiB (0%)
Title : English SDH
Language : English
Default : No
Forced : No

Menu
00:00:00.000 : en:Chapter 01
00:16:41.667 : en:Chapter 02
00:27:09.875 : en:Chapter 03
00:42:13.000 : en:Chapter 04
00:58:49.917 : en:Chapter 05
01:15:27.750 : en:Chapter 06
01:30:52.417 : en:Chapter 07
01:44:05.042 : en:Chapter 08
02:01:46.083 : en:Chapter 09
02:12:20.792 : en:Chapter 10
02:24:41.625 : en:Chapter 11
02:38:22.375 : en:Chapter 12
02:58:17.667 : en:Chapter 13


新种推荐使用qBittorrent、uTorrent等下载软件,有条件的推荐115更好的下载软件!

上帝的使者(51.01GB)The.Message.1976.2160p.UHD.BluRay.x265.10bit.HDR.DTS-HD.MA.5.1-B0MBARDiERS
游客,如果您要查看本帖隐藏内容请回复






4K QQ,爱心.gif


上一篇:杀手 / The Killing (1956) 4K蓝光[原盘+REMUX]版本下载
下一篇:迷失之城[简繁中字]/The Lost City(2022)4K蓝光[原盘+REMUX]版本下载
回复

使用道具 举报

48

主题

1647

帖子

4754

积分

4K家园VIP

Rank: 9Rank: 9Rank: 9

积分
4754
发表于 2022-7-24 11:57:10 | 显示全部楼层
4K家园不错,希望这种资源越多越好
回复 支持 反对

使用道具 举报

1

主题

1444

帖子

4180

积分

4K家园VIP

Rank: 9Rank: 9Rank: 9

积分
4180
发表于 2022-7-24 15:01:54 | 显示全部楼层
支持一下楼主,顶起来
回复 支持 反对

使用道具 举报

2

主题

1520

帖子

4364

积分

4K家园VIP

Rank: 9Rank: 9Rank: 9

积分
4364
发表于 2022-7-24 15:16:55 | 显示全部楼层
楼猪辛苦了,支持一下分享好资源
回复 支持 反对

使用道具 举报

主题

帖子

0

积分

4K家园VIP

Rank: 9Rank: 9Rank: 9

积分
0
发表于 2022-7-25 08:58:50 | 显示全部楼层
太好啦&萬分感謝版主的無私發佈分享%
回复 支持 反对

使用道具 举报

2

主题

1420

帖子

4050

积分

4K家园VIP

Rank: 9Rank: 9Rank: 9

积分
4050
发表于 2022-7-25 12:19:36 来自手机 | 显示全部楼层
楼主这资源不错,我收藏了
回复 支持 反对

使用道具 举报

1

主题

1416

帖子

4080

积分

4K家园VIP

Rank: 9Rank: 9Rank: 9

积分
4080
发表于 2022-7-25 13:31:45 来自手机 | 显示全部楼层
你们要是有4K资源记得分享,别小气
回复 支持 反对

使用道具 举报

主题

帖子

25

积分

新手上路

Rank: 1

积分
25
发表于 2022-10-12 23:07:47 | 显示全部楼层
看看怎么样
回复 支持 反对

使用道具 举报

您需要登录后才可以回帖 登录 | 立即注册

本版积分规则

精彩图文
Archiver|手机版|TAG|Sitemap|新帖|专题|联系我们:邮箱: 4kjia.com@gmail.com   

4k家园   ©2019