超胆侠 [简繁中字] (2018) 1-3季全集打包/4K高清版本下载

[复制链接]

188

主题

211

帖子

2061

积分

版主

Rank: 7Rank: 7Rank: 7

积分
2061
 楼主| 发表于 2022-7-24 22:02:40 | 显示全部楼层 |阅读模式

p2249670661_副本.jpg

◎译  名 超胆侠 第一季/夜魔侠
◎片  名 Daredevil Season 1
◎年  代 2015
◎国  家 美国
◎类  别 动作/科幻
◎语  言 英语/俄语/汉语普通话/日语/西班牙语
◎上映日期 2015-04-10(美国)
◎IMDb评分 8.6/10 from 425985 users
◎IMDb链接 http://www.imdb.com/title/tt3322312/
◎豆瓣评分 8.5/10 from 25086 users
◎豆瓣链接 https://movie.douban.com/subject/25769160/
◎集  数 13
◎片  长 60分钟
◎导  演 菲尔·亚伯拉罕 Phil Abraham / 亚当·肯恩 Adam Kane
◎主  演 查理·考克斯 Charlie Cox
       杰弗里·坎特尔 Geoffrey Cantor
       罗莎里奥·道森 Rosario Dawson
       斯科特·格伦 Scott Glenn
       埃尔登·汉森 Elden Henson
       文森特·多诺费奥 Vincent D'Onofrio
       沃迪·科蒂斯·霍尔 Vondie Curtis-Hall
       吉迪恩·埃默里 Gideon Emery
       鲍勃·冈顿 Bob Gunton
       皮特·麦克罗比 Peter McRobbie
       加里·帕斯托雷 Garry Pastore
       黛博拉·安沃尔 Deborah Ann Woll
       阿耶莱特·祖里尔 Ayelet Zurer
       克里斯·塔迪奥 Chris Tardio
       托比·莱昂纳德·摩尔 Toby Leonard Moore
       托尼·诺莫夫斯基 Tony Naumovski
       迈克尔·阿伯特 Michael Abbott Jr.

◎简  介

  《夜魔侠》是漫威首个在Netflix推出的电视剧,第一季共十三集。夜魔侠原名马修·默多克,虽然双目失明,但拥有超强的听觉和触觉,以及后天学习的格斗技术。他平时是一个律师,夜晚戴上面具后在纽约街头打击犯罪。

◎获奖情况

  第22届美国演员工会奖  (2016)
  剧集最佳特技群像(提名)

  第2届豆瓣电影年度榜单  (2015)
  评分最高的英美剧(新剧)(提名)

Video
ID : 1
Format : HEVC
Format/Info : High Efficiency Video Coding
Format profile : Main 10@L5@Main
HDR format : SMPTE ST 2086, HDR10 compatible
Codec ID : V_MPEGH/ISO/HEVC
Duration : 59 min 23 s
Bit rate : 15.9 Mb/s
Width : 3 840 pixels
Height : 2 160 pixels
Display aspect ratio : 16:9
Frame rate mode : Constant
Frame rate : 23.976 (24000/1001) FPS
Color space : YUV
Chroma subsampling : 4:2:0 (Type 2)
Bit depth : 10 bits
Bits/(Pixel*Frame) : 0.080
Stream size : 6.58 GiB (84%)
Default : Yes
Forced : No
Color range : Limited
Color primaries : BT.2020
Transfer characteristics : PQ
Matrix coefficients : BT.2020 non-constant
Mastering display color primaries : Display P3
Mastering display luminance : min: 0.0050 cd/m2, max: 4000 cd/m2
Maximum Content Light Level : 10000 cd/m2
Maximum Frame-Average Light Level : 1892 cd/m2

Audio
ID : 2
Format : DTS XLL
Format/Info : Digital Theater Systems
Commercial name : DTS-HD Master Audio
Codec ID : A_DTS
Duration : 59 min 26 s
Bit rate mode : Variable
Bit rate : 2 924 kb/s
Channel(s) : 6 channels
Channel layout : C L R Ls Rs LFE
Sampling rate : 48.0 kHz
Frame rate : 93.750 FPS (512 SPF)
Bit depth : 24 bits
Compression mode : Lossless
Stream size : 1.21 GiB (16%)
Language : English
Default : Yes
Forced : No

Text #1
ID : 3
Format : UTF-8
Codec ID : S_TEXT/UTF8
Codec ID/Info : UTF-8 Plain Text
Duration : 56 min 58 s
Bit rate : 57 b/s
Count of elements : 774
Stream size : 24.2 KiB (0%)
Title : English
Language : English
Default : No
Forced : No

Text #2
ID : 4
Format : UTF-8
Codec ID : S_TEXT/UTF8
Codec ID/Info : UTF-8 Plain Text
Duration : 54 min 10 s
Bit rate : 52 b/s
Count of elements : 671
Stream size : 21.0 KiB (0%)
Title : Spanish
Language : Spanish
Default : No
Forced : No

Text #3
ID : 5
Format : UTF-8
Codec ID : S_TEXT/UTF8
Codec ID/Info : UTF-8 Plain Text
Duration : 56 min 14 s
Bit rate : 56 b/s
Count of elements : 669
Stream size : 23.2 KiB (0%)
Title : French
Language : French
Default : No
Forced : No

Text #4
ID : 6
Format : UTF-8
Codec ID : S_TEXT/UTF8
Codec ID/Info : UTF-8 Plain Text
Duration : 54 min 10 s
Bit rate : 56 b/s
Count of elements : 641
Stream size : 22.6 KiB (0%)
Title : German
Language : German
Default : No
Forced : No

Text #5
ID : 7
Format : UTF-8
Codec ID : S_TEXT/UTF8
Codec ID/Info : UTF-8 Plain Text
Duration : 55 min 10 s
Bit rate : 48 b/s
Count of elements : 662
Stream size : 19.6 KiB (0%)
Title : Tagalog
Language : Tagalog
Default : No
Forced : No

Text #6
ID : 8
Format : UTF-8
Codec ID : S_TEXT/UTF8
Codec ID/Info : UTF-8 Plain Text
Duration : 54 min 10 s
Bit rate : 48 b/s
Count of elements : 671
Stream size : 19.3 KiB (0%)
Title : Simplified
Language : Chinese
Default : No
Forced : No

Text #7
ID : 9
Format : UTF-8
Codec ID : S_TEXT/UTF8
Codec ID/Info : UTF-8 Plain Text
Duration : 54 min 10 s
Bit rate : 47 b/s
Count of elements : 671
Stream size : 18.7 KiB (0%)
Title : Traditional
Language : Chinese
Default : No
Forced : No




p2325665994_副本.jpg

◎译  名 超胆侠 第二季/夜魔侠
◎片  名 Daredevil Season 2
◎年  代 2016
◎国  家 美国
◎类  别 剧情/动作/犯罪
◎语  言 英语
◎上映日期 2016-03-18(美国)
◎IMDb评分 8.6/10 from 425985 users
◎IMDb链接 http://www.imdb.com/title/tt4625048/
◎豆瓣评分 8.6/10 from 14881 users
◎豆瓣链接 http://movie.douban.com/subject/26373110/
◎集  数 13
◎片  长 54分钟
◎导  演 菲尔·亚伯拉罕 Phil Abraham
◎主  演 查理·考克斯 Charlie Cox
       黛博拉·安沃尔 Deborah Ann Woll
       埃尔登·汉森 Elden Henson
       艾洛蒂·袁 Elodie Yung
       罗莎里奥·道森 Rosario Dawson
       乔·博恩瑟 Jon Bernthal
       斯科特·格伦 Scott Glenn
       马特·杰拉德 Matt Gerald
       斯蒂芬·里德尔 Stephen Rider

◎简  介

  漫威超级英雄电视剧《超胆侠》近日续订第二季,将继续在Netflix平台上播出。

Video
ID : 1
Format : HEVC
Format/Info : High Efficiency Video Coding
Format profile : Main 10@L5@Main
HDR format : SMPTE ST 2086, HDR10 compatible
Codec ID : V_MPEGH/ISO/HEVC
Duration : 1 h 0 min
Bit rate : 15.7 Mb/s
Width : 3 840 pixels
Height : 2 160 pixels
Display aspect ratio : 16:9
Frame rate mode : Constant
Frame rate : 23.976 (24000/1001) FPS
Color space : YUV
Chroma subsampling : 4:2:0 (Type 2)
Bit depth : 10 bits
Bits/(Pixel*Frame) : 0.079
Stream size : 6.61 GiB (83%)
Default : Yes
Forced : No
Color range : Limited
Color primaries : BT.2020
Transfer characteristics : PQ
Matrix coefficients : BT.2020 non-constant
Mastering display color primaries : Display P3
Mastering display luminance : min: 0.0050 cd/m2, max: 4000 cd/m2
Maximum Content Light Level : 10000 cd/m2
Maximum Frame-Average Light Level : 303 cd/m2

Audio
ID : 2
Format : DTS XLL
Format/Info : Digital Theater Systems
Commercial name : DTS-HD Master Audio
Codec ID : A_DTS
Duration : 1 h 0 min
Bit rate mode : Variable
Bit rate : 3 311 kb/s
Channel(s) : 6 channels
Channel layout : C L R Ls Rs LFE
Sampling rate : 48.0 kHz
Frame rate : 93.750 FPS (512 SPF)
Bit depth : 24 bits
Compression mode : Lossless
Stream size : 1.39 GiB (17%)
Default : Yes
Forced : No

Text #1
ID : 3
Format : UTF-8
Codec ID : S_TEXT/UTF8
Codec ID/Info : UTF-8 Plain Text
Duration : 58 min 47 s
Bit rate : 64 b/s
Count of elements : 811
Stream size : 27.9 KiB (0%)
Language : English
Default : Yes
Forced : No

Text #2
ID : 4
Format : UTF-8
Codec ID : S_TEXT/UTF8
Codec ID/Info : UTF-8 Plain Text
Duration : 58 min 41 s
Bit rate : 92 b/s
Count of elements : 689
Stream size : 40.0 KiB (0%)
Language : Arabic
Default : No
Forced : No

Text #3
ID : 5
Format : UTF-8
Codec ID : S_TEXT/UTF8
Codec ID/Info : UTF-8 Plain Text
Duration : 58 min 41 s
Bit rate : 39 b/s
Count of elements : 688
Stream size : 16.8 KiB (0%)
Title : Simplified
Language : Chinese
Default : No
Forced : No

Text #4
ID : 6
Format : UTF-8
Codec ID : S_TEXT/UTF8
Codec ID/Info : UTF-8 Plain Text
Duration : 58 min 41 s
Bit rate : 37 b/s
Count of elements : 688
Stream size : 16.2 KiB (0%)
Title : Traditional
Language : Chinese
Default : No
Forced : No

Text #5
ID : 7
Format : UTF-8
Codec ID : S_TEXT/UTF8
Codec ID/Info : UTF-8 Plain Text
Duration : 58 min 49 s
Bit rate : 49 b/s
Count of elements : 745
Stream size : 21.5 KiB (0%)
Language : Croatian
Default : No
Forced : No

Text #6
ID : 8
Format : UTF-8
Codec ID : S_TEXT/UTF8
Codec ID/Info : UTF-8 Plain Text
Duration : 58 min 50 s
Bit rate : 54 b/s
Count of elements : 745
Stream size : 23.5 KiB (0%)
Language : Czech
Default : No
Forced : No

Text #7
ID : 9
Format : UTF-8
Codec ID : S_TEXT/UTF8
Codec ID/Info : UTF-8 Plain Text
Duration : 58 min 34 s
Bit rate : 49 b/s
Count of elements : 644
Stream size : 21.4 KiB (0%)
Language : Danish
Default : No
Forced : No

Text #8
ID : 10
Format : UTF-8
Codec ID : S_TEXT/UTF8
Codec ID/Info : UTF-8 Plain Text
Duration : 58 min 41 s
Bit rate : 47 b/s
Count of elements : 510
Stream size : 20.4 KiB (0%)
Language : Dutch
Default : No
Forced : No

Text #9
ID : 11
Format : UTF-8
Codec ID : S_TEXT/UTF8
Codec ID/Info : UTF-8 Plain Text
Duration : 58 min 41 s
Bit rate : 54 b/s
Count of elements : 631
Stream size : 23.3 KiB (0%)
Language : German
Default : No
Forced : No

Text #10
ID : 12
Format : UTF-8
Codec ID : S_TEXT/UTF8
Codec ID/Info : UTF-8 Plain Text
Duration : 59 min 45 s
Bit rate : 75 b/s
Count of elements : 689
Stream size : 33.1 KiB (0%)
Language : Greek
Default : No
Forced : No

Text #11
ID : 13
Format : UTF-8
Codec ID : S_TEXT/UTF8
Codec ID/Info : UTF-8 Plain Text
Duration : 58 min 41 s
Bit rate : 47 b/s
Count of elements : 542
Stream size : 20.4 KiB (0%)
Language : Finnish
Default : No
Forced : No

Text #12
ID : 14
Format : UTF-8
Codec ID : S_TEXT/UTF8
Codec ID/Info : UTF-8 Plain Text
Duration : 59 min 45 s
Bit rate : 52 b/s
Count of elements : 661
Stream size : 23.2 KiB (0%)
Language : French
Default : No
Forced : No

Text #13
ID : 15
Format : UTF-8
Codec ID : S_TEXT/UTF8
Codec ID/Info : UTF-8 Plain Text
Duration : 58 min 41 s
Bit rate : 79 b/s
Count of elements : 679
Stream size : 34.3 KiB (0%)
Language : Hebrew
Default : No
Forced : No

Text #14
ID : 16
Format : UTF-8
Codec ID : S_TEXT/UTF8
Codec ID/Info : UTF-8 Plain Text
Duration : 59 min 45 s
Bit rate : 106 b/s
Count of elements : 689
Stream size : 46.6 KiB (0%)
Language : Hindi
Default : No
Forced : No

Text #15
ID : 17
Format : UTF-8
Codec ID : S_TEXT/UTF8
Codec ID/Info : UTF-8 Plain Text
Duration : 58 min 50 s
Bit rate : 55 b/s
Count of elements : 744
Stream size : 23.8 KiB (0%)
Language : Hungarian
Default : No
Forced : No

Text #16
ID : 18
Format : UTF-8
Codec ID : S_TEXT/UTF8
Codec ID/Info : UTF-8 Plain Text
Duration : 59 min 55 s
Bit rate : 52 b/s
Count of elements : 738
Stream size : 23.2 KiB (0%)
Language : Indonesian
Default : No
Forced : No

Text #17
ID : 19
Format : UTF-8
Codec ID : S_TEXT/UTF8
Codec ID/Info : UTF-8 Plain Text
Duration : 58 min 41 s
Bit rate : 52 b/s
Count of elements : 642
Stream size : 22.4 KiB (0%)
Language : Italian
Default : No
Forced : No

Text #18
ID : 20
Format : UTF-8
Codec ID : S_TEXT/UTF8
Codec ID/Info : UTF-8 Plain Text
Duration : 58 min 41 s
Bit rate : 36 b/s
Count of elements : 590
Stream size : 15.6 KiB (0%)
Language : Japanese
Default : No
Forced : No

Text #19
ID : 21
Format : UTF-8
Codec ID : S_TEXT/UTF8
Codec ID/Info : UTF-8 Plain Text
Duration : 58 min 41 s
Bit rate : 46 b/s
Count of elements : 686
Stream size : 19.9 KiB (0%)
Language : Korean
Default : No
Forced : No

Text #20
ID : 22
Format : UTF-8
Codec ID : S_TEXT/UTF8
Codec ID/Info : UTF-8 Plain Text
Duration : 58 min 47 s
Bit rate : 56 b/s
Count of elements : 728
Stream size : 24.5 KiB (0%)
Language : Malay
Default : No
Forced : No

Text #21
ID : 23
Format : UTF-8
Codec ID : S_TEXT/UTF8
Codec ID/Info : UTF-8 Plain Text
Duration : 58 min 41 s
Bit rate : 50 b/s
Count of elements : 653
Stream size : 21.6 KiB (0%)
Language : Norwegian
Default : No
Forced : No

Text #22
ID : 24
Format : UTF-8
Codec ID : S_TEXT/UTF8
Codec ID/Info : UTF-8 Plain Text
Duration : 58 min 41 s
Bit rate : 48 b/s
Count of elements : 658
Stream size : 20.7 KiB (0%)
Language : Polish
Default : No
Forced : No

Text #23
ID : 25
Format : UTF-8
Codec ID : S_TEXT/UTF8
Codec ID/Info : UTF-8 Plain Text
Duration : 58 min 41 s
Bit rate : 53 b/s
Count of elements : 683
Stream size : 22.9 KiB (0%)
Language : Portuguese
Default : No
Forced : No

Text #24
ID : 26
Format : UTF-8
Codec ID : S_TEXT/UTF8
Codec ID/Info : UTF-8 Plain Text
Duration : 59 min 45 s
Bit rate : 42 b/s
Count of elements : 669
Stream size : 18.5 KiB (0%)
Language : Romanian
Default : No
Forced : No

Text #25
ID : 27
Format : UTF-8
Codec ID : S_TEXT/UTF8
Codec ID/Info : UTF-8 Plain Text
Duration : 58 min 47 s
Bit rate : 61 b/s
Count of elements : 716
Stream size : 26.5 KiB (0%)
Language : Russian
Default : No
Forced : No

Text #26
ID : 28
Format : UTF-8
Codec ID : S_TEXT/UTF8
Codec ID/Info : UTF-8 Plain Text
Duration : 59 min 53 s
Bit rate : 48 b/s
Count of elements : 685
Stream size : 21.3 KiB (0%)
Language : Slovak
Default : No
Forced : No

Text #27
ID : 29
Format : UTF-8
Codec ID : S_TEXT/UTF8
Codec ID/Info : UTF-8 Plain Text
Duration : 58 min 41 s
Bit rate : 52 b/s
Count of elements : 664
Stream size : 22.6 KiB (0%)
Language : Spanish
Default : No
Forced : No

Text #28
ID : 30
Format : UTF-8
Codec ID : S_TEXT/UTF8
Codec ID/Info : UTF-8 Plain Text
Duration : 58 min 41 s
Bit rate : 51 b/s
Count of elements : 667
Stream size : 22.2 KiB (0%)
Language : Swedish
Default : No
Forced : No

Text #29
ID : 31
Format : UTF-8
Codec ID : S_TEXT/UTF8
Codec ID/Info : UTF-8 Plain Text
Duration : 59 min 45 s
Bit rate : 100 b/s
Count of elements : 687
Stream size : 44.1 KiB (0%)
Language : Thai
Default : No
Forced : No

Text #30
ID : 32
Format : UTF-8
Codec ID : S_TEXT/UTF8
Codec ID/Info : UTF-8 Plain Text
Duration : 58 min 45 s
Bit rate : 46 b/s
Count of elements : 650
Stream size : 19.9 KiB (0%)
Language : Tagalog
Default : No
Forced : No

Text #31
ID : 33
Format : UTF-8
Codec ID : S_TEXT/UTF8
Codec ID/Info : UTF-8 Plain Text
Duration : 58 min 41 s
Bit rate : 53 b/s
Count of elements : 692
Stream size : 23.0 KiB (0%)
Language : Turkish
Default : No
Forced : No

Text #32
ID : 34
Format : UTF-8
Codec ID : S_TEXT/UTF8
Codec ID/Info : UTF-8 Plain Text
Duration : 58 min 47 s
Bit rate : 129 b/s
Count of elements : 735
Stream size : 55.8 KiB (0%)
Language : Ukrainian
Default : No
Forced : No

Text #33
ID : 35
Format : UTF-8
Codec ID : S_TEXT/UTF8
Codec ID/Info : UTF-8 Plain Text
Duration : 59 min 45 s
Bit rate : 59 b/s
Count of elements : 688
Stream size : 25.8 KiB (0%)
Language : Vietnamese
Default : No
Forced : No




p2534675103_副本.png

◎译  名 超胆侠 第三季 / 漫威夜魔侠(港) / 夜魔 / 夜魔侠
◎片  名 Daredevil Season 3
◎年  代 2018
◎产  地 美国
◎类  别 剧情 / 动作 / 犯罪
◎语  言 英语
◎上映日期 2018-10-19(美国)
◎IMDb评分 8.6/10 from 425985 users
◎IMDb链接 https://www.imdb.com/title/tt5902120/
◎豆瓣评分  9.3/10 from 134346 users
◎豆瓣链接 https://movie.douban.com/subject/26841619/
◎集  数 13
◎片  长 54分钟
◎导  演 菲尔·亚伯拉罕 Phil Abraham / 史蒂芬·瑟吉克 Stephen Surjik  / 马克·约布斯特 Marc Jobst
◎编  剧 比尔·埃弗里特 Bill Everett / 德鲁·戈达德 Drew Goddard / 斯坦·李 Stan Lee  / 莎拉·施特莱歇尔 Sarah Streicher
◎演  员 查理·考克斯 Charlie Cox
       黛博拉·安沃尔 Deborah Ann Woll
       埃尔登·汉森 Elden Henson
       文森特·多诺费奥 Vincent D'Onofrio
       罗伊斯·约翰逊 Royce Johnson
       杰弗里·坎特尔 Geoffrey Cantor
       杰伊·阿里 Jay Ali
       斯蒂芬·里德尔 Stephen Rider
       威尔逊·贝索尔 Wilson Bethel
       阿耶莱特·祖里尔 Ayelet Zurer
       皮特·麦克罗比 Peter McRobbie
       埃米·拉特贝格 Amy Rutberg
       琼妮·威利 Joanne Whalley
       梅雷迪斯·萨拉格尔 Meredith Salenger
       马特·杰拉德 Matt Gerald
       艾洛蒂·袁 Elodie Yung
       约翰·帕特里克·海登 John Patrick Hayden
       伊莎贝拉·派萨卡尼 Isabella Pisacane
       斯凯勒·加特纳 Skylar Gaertner
       霍莉·辛纳蒙 Holly Cinnamon


◎简  介


  失踪数月之后,意志消沉的马特·默多克再度现身,并开始质疑自己“义警”夜魔侠和律师的双重身份。他的劲敌威尔森·菲斯克却在此时使计出狱。马特是继续逃避世界或是作为英雄接受自己的命运,他必须做出选择。

◎获奖情况 (共1项)
  第25届美国演员工会奖 (2019)
  剧集最佳特技群戏(提名)

Video
ID : 1
Format : HEVC
Format/Info : High Efficiency Video Coding
Format profile : Main 10@L5@Main
HDR format : SMPTE ST 2086, HDR10 compatible
Codec ID : V_MPEGH/ISO/HEVC
Duration : 55 min 33 s
Bit rate : 15.3 Mb/s
Width : 3 840 pixels
Height : 2 160 pixels
Display aspect ratio : 16:9
Frame rate mode : Constant
Frame rate : 23.976 (24000/1001) FPS
Color space : YUV
Chroma subsampling : 4:2:0 (Type 2)
Bit depth : 10 bits
Bits/(Pixel*Frame) : 0.077
Stream size : 5.95 GiB (93%)
Default : Yes
Forced : No
Color range : Limited
Color primaries : BT.2020
Transfer characteristics : PQ
Matrix coefficients : BT.2020 non-constant
Mastering display color primaries : Display P3
Mastering display luminance : min: 0.0050 cd/m2, max: 4000 cd/m2
Maximum Content Light Level : 9981 cd/m2
Maximum Frame-Average Light Level : 278 cd/m2

Audio
ID : 2
Format : E-AC-3 JOC
Format/Info : Enhanced AC-3 with Joint Object Coding
Commercial name : Dolby Digital Plus with Dolby Atmos
Codec ID : A_EAC3
Duration : 55 min 33 s
Bit rate mode : Constant
Bit rate : 768 kb/s
Channel(s) : 6 channels
Channel layout : L R C LFE Ls Rs
Sampling rate : 48.0 kHz
Frame rate : 31.250 FPS (1536 SPF)
Compression mode : Lossy
Stream size : 305 MiB (5%)
Language : English
Service kind : Complete Main
Default : Yes
Forced : No
Complexity index : 16
Number of dynamic objects : 15
Bed channel count : 1 channel
Bed channel configuration : LFE

Text #1
ID : 3
Format : UTF-8
Codec ID : S_TEXT/UTF8
Codec ID/Info : UTF-8 Plain Text
Title : [CC]
Language : English
Default : No
Forced : No

Text #2
ID : 4
Format : UTF-8
Codec ID : S_TEXT/UTF8
Codec ID/Info : UTF-8 Plain Text
Language : Arabic
Default : No
Forced : No

Text #3
ID : 5
Format : UTF-8
Codec ID : S_TEXT/UTF8
Codec ID/Info : UTF-8 Plain Text
Language : Czech
Default : No
Forced : No

Text #4
ID : 6
Format : UTF-8
Codec ID : S_TEXT/UTF8
Codec ID/Info : UTF-8 Plain Text
Language : Danish
Default : No
Forced : No

Text #5
ID : 7
Format : UTF-8
Codec ID : S_TEXT/UTF8
Codec ID/Info : UTF-8 Plain Text
Language : German
Default : No
Forced : No

Text #6
ID : 8
Format : UTF-8
Codec ID : S_TEXT/UTF8
Codec ID/Info : UTF-8 Plain Text
Language : Greek
Default : No
Forced : No

Text #7
ID : 9
Format : UTF-8
Codec ID : S_TEXT/UTF8
Codec ID/Info : UTF-8 Plain Text
Language : Spanish
Default : No
Forced : No

Text #8
ID : 10
Format : UTF-8
Codec ID : S_TEXT/UTF8
Codec ID/Info : UTF-8 Plain Text
Title : European
Language : Spanish
Default : No
Forced : No

Text #9
ID : 11
Format : UTF-8
Codec ID : S_TEXT/UTF8
Codec ID/Info : UTF-8 Plain Text
Language : Finnish
Default : No
Forced : No

Text #10
ID : 12
Format : UTF-8
Codec ID : S_TEXT/UTF8
Codec ID/Info : UTF-8 Plain Text
Language : French
Default : No
Forced : No

Text #11
ID : 13
Format : UTF-8
Codec ID : S_TEXT/UTF8
Codec ID/Info : UTF-8 Plain Text
Language : Hebrew
Default : No
Forced : No

Text #12
ID : 14
Format : UTF-8
Codec ID : S_TEXT/UTF8
Codec ID/Info : UTF-8 Plain Text
Language : Hungarian
Default : No
Forced : No

Text #13
ID : 15
Format : UTF-8
Codec ID : S_TEXT/UTF8
Codec ID/Info : UTF-8 Plain Text
Language : Indonesian
Default : No
Forced : No

Text #14
ID : 16
Format : UTF-8
Codec ID : S_TEXT/UTF8
Codec ID/Info : UTF-8 Plain Text
Language : Italian
Default : No
Forced : No

Text #15
ID : 17
Format : UTF-8
Codec ID : S_TEXT/UTF8
Codec ID/Info : UTF-8 Plain Text
Language : Japanese
Default : No
Forced : No

Text #16
ID : 18
Format : UTF-8
Codec ID : S_TEXT/UTF8
Codec ID/Info : UTF-8 Plain Text
Language : Korean
Default : No
Forced : No

Text #17
ID : 19
Format : UTF-8
Codec ID : S_TEXT/UTF8
Codec ID/Info : UTF-8 Plain Text
Language : Norwegian Bokmal
Default : No
Forced : No

Text #18
ID : 20
Format : UTF-8
Codec ID : S_TEXT/UTF8
Codec ID/Info : UTF-8 Plain Text
Language : Dutch
Default : No
Forced : No

Text #19
ID : 21
Format : UTF-8
Codec ID : S_TEXT/UTF8
Codec ID/Info : UTF-8 Plain Text
Language : Polish
Default : No
Forced : No

Text #20
ID : 22
Format : UTF-8
Codec ID : S_TEXT/UTF8
Codec ID/Info : UTF-8 Plain Text
Language : Portuguese
Default : No
Forced : No

Text #21
ID : 23
Format : UTF-8
Codec ID : S_TEXT/UTF8
Codec ID/Info : UTF-8 Plain Text
Title : Brazilian
Language : Portuguese
Default : No
Forced : No

Text #22
ID : 24
Format : UTF-8
Codec ID : S_TEXT/UTF8
Codec ID/Info : UTF-8 Plain Text
Language : Romanian
Default : No
Forced : No

Text #23
ID : 25
Format : UTF-8
Codec ID : S_TEXT/UTF8
Codec ID/Info : UTF-8 Plain Text
Language : Russian
Default : No
Forced : No

Text #24
ID : 26
Format : UTF-8
Codec ID : S_TEXT/UTF8
Codec ID/Info : UTF-8 Plain Text
Language : Swedish
Default : No
Forced : No

Text #25
ID : 27
Format : UTF-8
Codec ID : S_TEXT/UTF8
Codec ID/Info : UTF-8 Plain Text
Language : Thai
Default : No
Forced : No

Text #26
ID : 28
Format : UTF-8
Codec ID : S_TEXT/UTF8
Codec ID/Info : UTF-8 Plain Text
Language : Turkish
Default : No
Forced : No

Text #27
ID : 29
Format : UTF-8
Codec ID : S_TEXT/UTF8
Codec ID/Info : UTF-8 Plain Text
Language : Ukrainian
Default : No
Forced : No

Text #28
ID : 30
Format : UTF-8
Codec ID : S_TEXT/UTF8
Codec ID/Info : UTF-8 Plain Text
Language : Vietnamese
Default : No
Forced : No

Text #29
ID : 31
Format : UTF-8
Codec ID : S_TEXT/UTF8
Codec ID/Info : UTF-8 Plain Text
Title : Simplified
Language : Chinese
Default : No
Forced : No

Text #30
ID : 32
Format : UTF-8
Codec ID : S_TEXT/UTF8
Codec ID/Info : UTF-8 Plain Text
Title : Traditional
Language : Chinese
Default : No
Forced : No
下载地址:

第一季
游客,如果您要查看本帖隐藏内容请回复


第二季
游客,如果您要查看本帖隐藏内容请回复


第三季
游客,如果您要查看本帖隐藏内容请回复





上一篇:香水 [简繁中字] / Parfum (2018) 第一季全/4K高清版本下载
下一篇:毒蛇 [简繁中字] / The Serpen (2018) 第一季全/4K高清版本下载
回复

使用道具 举报

4

主题

1666

帖子

4598

积分

4K家园VIP

Rank: 9Rank: 9Rank: 9

积分
4598
发表于 2022-7-24 22:02:56 | 显示全部楼层
前排支持下
回复 支持 反对

使用道具 举报

0

主题

1736

帖子

4722

积分

4K家园VIP

Rank: 9Rank: 9Rank: 9

积分
4722
发表于 2022-7-25 04:37:24 | 显示全部楼层
正好需要啊
回复 支持 反对

使用道具 举报

0

主题

8321

帖子

1万

积分

4K家园VIP

Rank: 9Rank: 9Rank: 9

积分
19318
发表于 2022-7-25 08:48:19 | 显示全部楼层
太好啦&萬分感謝版主的無私發佈分享%
回复 支持 反对

使用道具 举报

53

主题

1245

帖子

3803

积分

4K家园VIP

Rank: 9Rank: 9Rank: 9

积分
3803
发表于 2022-7-25 10:11:53 | 显示全部楼层
什么东西啊
回复 支持 反对

使用道具 举报

0

主题

1

帖子

10

积分

新手上路

Rank: 1

积分
10
发表于 2022-7-26 08:14:40 | 显示全部楼层
新手上路请多照顾,谢谢!
.
回复 支持 反对

使用道具 举报

0

主题

1335

帖子

4017

积分

4K家园VIP

Rank: 9Rank: 9Rank: 9

积分
4017
发表于 2022-7-26 17:33:00 | 显示全部楼层
一直在看
回复 支持 反对

使用道具 举报

3

主题

1473

帖子

4273

积分

4K家园VIP

Rank: 9Rank: 9Rank: 9

积分
4273
发表于 2022-7-26 17:38:03 | 显示全部楼层
LZ敢整点更有创意的不?兄弟们等着围观捏~
回复 支持 反对

使用道具 举报

您需要登录后才可以回帖 登录 | 立即注册

本版积分规则

精彩图文
Archiver|手机版|TAG|Sitemap|新帖|专题|联系我们:邮箱: 4kjia.com@gmail.com   

4k家园   ©2019