[4K MV] 2022 Itzy - Sneakers(运动鞋) [2160P/MP4/1.72GB]

[复制链接]

1780

主题

1859

帖子

1万

积分

超级版主

Rank: 8Rank: 8

积分
19465
 楼主| 发表于 2022-7-25 11:35:36 | 显示全部楼层 |阅读模式
本帖最后由 叽里呱啦 于 2022-7-25 20:43 编辑

1 (1).jpg 1 (2).jpg 1 (3).jpg 1 (4).jpg 1 (5).jpg 1 (6).jpg

General
Complete name                  : J:\下载4KMV\[4Kjia] 2022 Itzy - Sneakers(运动鞋)\[4Kjia] 2022 Itzy - Sneakers(运动鞋).mp4
Format                         : MPEG-4
Format profile                 : Base Media / Version 2
Codec ID                       : mp42 (mp42/mp41)
File size                      : 1.73 GiB
Duration                       : 3 min 4 s
Overall bit rate mode          : Variable
Overall bit rate               : 80.3 Mb/s
Encoded date                   : UTC 2022-07-14 20:54:55
Tagged date                    : UTC 2022-07-14 20:55:10
TIM                            : 00:00:00:00
TSC                            : 24000
TSZ                            : 1001

Video
ID                             : 1
Format                         : AVC
Format/Info                    : Advanced Video Codec
Format profile                 : Main@L5.1
Format settings                : CABAC / 4 Ref Frames
Format settings, CABAC         : Yes
Format settings, Reference fra : 4 frames
Codec ID                       : avc1
Codec ID/Info                  : Advanced Video Coding
Duration                       : 3 min 4 s
Bit rate                       : 79.9 Mb/s
Width                          : 3 840 pixels
Height                         : 2 160 pixels
Display aspect ratio           : 16:9
Frame rate mode                : Constant
Frame rate                     : 23.976 (24000/1001) FPS
Color space                    : YUV
Chroma subsampling             : 4:2:0
Bit depth                      : 8 bits
Scan type                      : Progressive
Bits/(Pixel*Frame)             : 0.402
Stream size                    : 1.72 GiB (100%)
Language                       : English
Encoded date                   : UTC 2022-07-14 20:54:55
Tagged date                    : UTC 2022-07-14 20:54:55
Color range                    : Limited
Color primaries                : BT.709
Transfer characteristics       : BT.709
Matrix coefficients            : BT.709
Codec configuration box        : avcC

Audio
ID                             : 2
Format                         : AAC LC
Format/Info                    : Advanced Audio Codec Low Complexity
Codec ID                       : mp4a-40-2
Duration                       : 3 min 4 s
Source duration                : 3 min 4 s
Bit rate mode                  : Variable
Bit rate                       : 317 kb/s
Maximum bit rate               : 376 kb/s
Channel(s)                     : 2 channels
Channel layout                 : L R
Sampling rate                  : 48.0 kHz
Frame rate                     : 46.875 FPS (1024 SPF)
Compression mode               : Lossy
Stream size                    : 7.00 MiB (0%)
Source stream size             : 7.00 MiB (0%)
Language                       : English
Encoded date                   : UTC 2022-07-14 20:54:55
Tagged date                    : UTC 2022-07-14 20:54:55

下载地址:
小水管制作不易,请下载后自觉做种,在此表示感谢!
****此区域为收费内容****    需支付 25 金币后可查看立即购买

提供2010-2022年本人多年来珍藏优质[4K、8K、16K(25-120fps)] 高品质韩国(女团)MV、各种演示片、测试片等4K韩国MV“珍藏版”视频硬盘有偿拷贝或网盘分享,最新4K视频每天更新中,需要的联系本楼主!




上一篇:[4K MV] [4Kjia] 2020 Taeyeon - Happy (快乐!) [2160P/MP4/415MB]
回复

使用道具 举报

1

主题

1388

帖子

3964

积分

中级会员

Rank: 4

积分
3964
发表于 2022-7-25 11:35:40 | 显示全部楼层
专业抢沙发的!哈哈
回复 支持 反对

使用道具 举报

51

主题

1411

帖子

4065

积分

4K家园VIP

Rank: 9Rank: 9Rank: 9

积分
4065
发表于 2022-7-25 11:56:57 | 显示全部楼层
看帖要回,回帖才健康,在踩踩,楼主辛苦了!
回复 支持 反对

使用道具 举报

0

主题

1732

帖子

4800

积分

4K家园VIP

Rank: 9Rank: 9Rank: 9

积分
4800
发表于 2022-7-25 12:05:11 | 显示全部楼层
好,很好,非常好!
回复 支持 反对

使用道具 举报

2

主题

1481

帖子

4247

积分

4K家园VIP

Rank: 9Rank: 9Rank: 9

积分
4247
发表于 2022-7-25 12:55:12 | 显示全部楼层
正需要
回复 支持 反对

使用道具 举报

4

主题

1362

帖子

4108

积分

4K家园VIP

Rank: 9Rank: 9Rank: 9

积分
4108
发表于 2022-7-25 14:17:33 | 显示全部楼层
求沙发
回复 支持 反对

使用道具 举报

0

主题

5

帖子

34

积分

4K家园VIP

Rank: 9Rank: 9Rank: 9

积分
34
发表于 2022-8-1 16:20:58 | 显示全部楼层
回帖才健康
回复 支持 反对

使用道具 举报

0

主题

1

帖子

73

积分

4K家园VIP

Rank: 9Rank: 9Rank: 9

积分
73
发表于 4 天前 | 显示全部楼层
尤其需要楼主这样的好人
回复 支持 反对

使用道具 举报

0

主题

27

帖子

50

积分

新手上路

Rank: 1

积分
50
发表于 昨天 11:12 | 显示全部楼层
油管来的~~~~
回复

使用道具 举报

1

主题

7

帖子

44

积分

新手上路

Rank: 1

积分
44
发表于 昨天 21:52 | 显示全部楼层
感谢分享 感谢了
回复 支持 反对

使用道具 举报

您需要登录后才可以回帖 登录 | 立即注册

本版积分规则

精彩图文
Archiver|手机版|TAG|Sitemap|新帖|专题|联系我们:邮箱: 4kjia.com@gmail.com   

4k家园   ©2019