[4K电影] 风的另一边 / The Other Side of the Wind‎ (2018) 4K高清版本下载

[复制链接]

主题

帖子

0

积分

超级版主

Rank: 8Rank: 8

积分
0
 楼主| 发表于 2022-7-25 22:04:21 | 显示全部楼层 |阅读模式
QQ图片20220725215433_副本.png

◎译  名 风的另一边 / 风的另一侧 / 风的另一头(台)
◎片  名 The Other Side of the Wind
◎年  代 2018
◎产  地 美国 / 法国 / 伊朗
◎类  别 剧情
◎语  言 英语
◎上映日期 2018-08-31(威尼斯电影节) / 2018-11-02(美国)
◎IMDb评分 6.7/10 from 7291 users
◎IMDb链接 http://www.imdb.com/title/tt0069049
◎豆瓣评分 7.4/10 from 1460 users
◎豆瓣链接 https://movie.douban.com/subject/2068290/
◎片  长 122分钟
◎导  演 奥逊·威尔斯 Orson Welles
◎编  剧 奥逊·威尔斯 Orson Welles
◎主  演 约翰·休斯顿 John Huston
       彼得·博格丹诺维奇 Peter Bogdanovich
       苏珊·斯塔丝伯格 Susan Strasberg
       奥雅·柯达 Oja Kodar
       莉莉·帕尔默 Lilli Palmer
       艾德蒙·奥布莱恩 Edmond O'Brien
       梅赛德丝·麦坎布雷奇 Mercedes McCambridge
       卡梅隆·米切尔 Cameron Mitchell
       皮特·杰森 Peter Jason
       丹尼斯·霍珀 Dennis Hopper
       本尼·鲁宾 Benny Rubin
       克劳德·夏布洛尔 Claude Chabrol
       斯蒂芬妮·奥德安 Stéphane Audran
         亨利·嘉格隆 Henry Jaglom
         保罗·马祖斯基 Paul Mazursky



◎简  介  

  《风的另一侧》的演员包括约翰·休斯顿、彼得·博格丹诺维奇、莉莉·帕尔默,以及威尔斯当时的女友奥佳·柯达,拍摄时间在1970-1976年之间,可以说,在威尔斯生命的最后15年,他的心血都在这部影片上。但由于资金的问题,加上威尔斯希望自己能够全权掌控整个过程,却始终不能如愿,以至他最终没能完成电影的制作,只是留下一段时长42分钟的短片和部分素材。
威尔斯于1985年逝世,后来,该片版权到了Red Road Entertainment手中,他们认为,《风的另一侧》作为威尔斯生前最后一部电影,是电影考古学的重要部分,如果不能让它重见天日,便永远无法完整地理解威尔斯的电影生涯和艺术遗产。在他诞辰100周年之际,推出这个电影众筹项目也算是时机不错。
一本关于这部电影的新书《奥逊·威尔斯的最后一部电影》也同时发行,作者Josh Karp谈及《风的另一侧》,“这就像发现了奥兹国仙境或消失已久的坟墓。这部电影正说明了艺术源自生活、生活反照艺术。它现在之所以变得如此传奇,是因为太多人参与其中希望完成影片,却又一次次地遭遇失败。”

◎获奖情况  

  第75届威尼斯电影节(2018)
  酷儿狮奖(提名) 奥逊·威尔斯

Video
ID : 1
Format : HEVC
Format/Info : High Efficiency Video Coding
Format profile : Main 10@L5@Main
HDR format : SMPTE ST 2086, HDR10 compatible
Codec ID : V_MPEGH/ISO/HEVC
Duration : 2 h 2 min
Bit rate : 15.6 Mb/s
Width : 3 840 pixels
Height : 2 160 pixels
Display aspect ratio : 16:9
Frame rate mode : Constant
Frame rate : 24.000 FPS
Color space : YUV
Chroma subsampling : 4:2:0 (Type 2)
Bit depth : 10 bits
Bits/(Pixel*Frame) : 0.078
Stream size : 13.3 GiB (96%)
Default : Yes
Forced : No
Color range : Limited
Color primaries : BT.2020
Transfer characteristics : PQ
Matrix coefficients : BT.2020 non-constant
Mastering display color primaries : Display P3
Mastering display luminance : min: 0.0050 cd/m2, max: 4000 cd/m2
Maximum Content Light Level : 9839 cd/m2
Maximum Frame-Average Light Level : 1161 cd/m2

Audio
ID : 2
Format : E-AC-3
Format/Info : Enhanced AC-3
Commercial name : Dolby Digital Plus
Codec ID : A_EAC3
Duration : 2 h 2 min
Bit rate mode : Constant
Bit rate : 640 kb/s
Channel(s) : 6 channels
Channel layout : L R C LFE Ls Rs
Sampling rate : 48.0 kHz
Frame rate : 31.250 FPS (1536 SPF)
Compression mode : Lossy
Stream size : 561 MiB (4%)
Language : English
Service kind : Complete Main
Default : Yes
Forced : No

Text #1
ID : 3
Format : UTF-8
Codec ID : S_TEXT/UTF8
Codec ID/Info : UTF-8 Plain Text
Duration : 2 h 2 min
Bit rate : 67 b/s
Frame rate : 0.263 FPS
Count of elements : 1923
Stream size : 60.3 KiB (0%)
Language : English
Default : No
Forced : No

Text #2
ID : 4
Format : UTF-8
Codec ID : S_TEXT/UTF8
Codec ID/Info : UTF-8 Plain Text
Duration : 2 h 1 min
Bit rate : 78 b/s
Frame rate : 0.265 FPS
Count of elements : 1931
Stream size : 69.5 KiB (0%)
Title : SDH
Language : English
Default : No
Forced : No

Text #3
ID : 5
Format : UTF-8
Codec ID : S_TEXT/UTF8
Codec ID/Info : UTF-8 Plain Text
Duration : 2 h 1 min
Bit rate : 111 b/s
Frame rate : 0.283 FPS
Count of elements : 2074
Stream size : 99.4 KiB (0%)
Language : Arabic
Default : No
Forced : No

Text #4
ID : 6
Format : UTF-8
Codec ID : S_TEXT/UTF8
Codec ID/Info : UTF-8 Plain Text
Duration : 2 h 2 min
Bit rate : 61 b/s
Frame rate : 0.234 FPS
Count of elements : 1715
Stream size : 54.6 KiB (0%)
Language : Czech
Default : No
Forced : No

Text #5
ID : 7
Format : UTF-8
Codec ID : S_TEXT/UTF8
Codec ID/Info : UTF-8 Plain Text
Duration : 2 h 2 min
Bit rate : 58 b/s
Frame rate : 0.233 FPS
Count of elements : 1703
Stream size : 52.3 KiB (0%)
Language : Danish
Default : No
Forced : No

Text #6
ID : 8
Format : UTF-8
Codec ID : S_TEXT/UTF8
Codec ID/Info : UTF-8 Plain Text
Duration : 2 h 2 min
Bit rate : 62 b/s
Frame rate : 0.255 FPS
Count of elements : 1866
Stream size : 55.9 KiB (0%)
Language : German
Default : No
Forced : No

Text #7
ID : 9
Format : UTF-8
Codec ID : S_TEXT/UTF8
Codec ID/Info : UTF-8 Plain Text
Duration : 2 h 2 min
Bit rate : 104 b/s
Frame rate : 0.248 FPS
Count of elements : 1817
Stream size : 93.4 KiB (0%)
Language : Greek
Default : No
Forced : No

Text #8
ID : 10
Format : UTF-8
Codec ID : S_TEXT/UTF8
Codec ID/Info : UTF-8 Plain Text
Duration : 2 h 1 min
Bit rate : 62 b/s
Frame rate : 0.265 FPS
Count of elements : 1938
Stream size : 56.1 KiB (0%)
Title : Latin American
Language : Spanish
Default : No
Forced : No

Text #9
ID : 11
Format : UTF-8
Codec ID : S_TEXT/UTF8
Codec ID/Info : UTF-8 Plain Text
Duration : 2 h 2 min
Bit rate : 60 b/s
Frame rate : 0.258 FPS
Count of elements : 1889
Stream size : 54.0 KiB (0%)
Language : Spanish
Default : No
Forced : No

Text #10
ID : 12
Format : UTF-8
Codec ID : S_TEXT/UTF8
Codec ID/Info : UTF-8 Plain Text
Duration : 2 h 1 min
Bit rate : 57 b/s
Frame rate : 0.197 FPS
Count of elements : 1444
Stream size : 51.5 KiB (0%)
Language : Finnish
Default : No
Forced : No

Text #11
ID : 13
Format : UTF-8
Codec ID : S_TEXT/UTF8
Codec ID/Info : UTF-8 Plain Text
Duration : 2 h 1 min
Bit rate : 69 b/s
Frame rate : 0.259 FPS
Count of elements : 1894
Stream size : 61.8 KiB (0%)
Language : French
Default : No
Forced : No

Text #12
ID : 14
Format : UTF-8
Codec ID : S_TEXT/UTF8
Codec ID/Info : UTF-8 Plain Text
Duration : 2 h 1 min
Bit rate : 99 b/s
Frame rate : 0.279 FPS
Count of elements : 2044
Stream size : 89.2 KiB (0%)
Language : Hebrew
Default : No
Forced : No

Text #13
ID : 15
Format : UTF-8
Codec ID : S_TEXT/UTF8
Codec ID/Info : UTF-8 Plain Text
Duration : 2 h 1 min
Bit rate : 58 b/s
Frame rate : 0.269 FPS
Count of elements : 1968
Stream size : 51.9 KiB (0%)
Language : Hungarian
Default : No
Forced : No

Text #14
ID : 16
Format : UTF-8
Codec ID : S_TEXT/UTF8
Codec ID/Info : UTF-8 Plain Text
Duration : 2 h 1 min
Bit rate : 56 b/s
Frame rate : 0.283 FPS
Count of elements : 2069
Stream size : 50.1 KiB (0%)
Language : Indonesian
Default : No
Forced : No

Text #15
ID : 17
Format : UTF-8
Codec ID : S_TEXT/UTF8
Codec ID/Info : UTF-8 Plain Text
Duration : 2 h 2 min
Bit rate : 62 b/s
Frame rate : 0.235 FPS
Count of elements : 1720
Stream size : 56.3 KiB (0%)
Language : Italian
Default : No
Forced : No

Text #16
ID : 18
Format : UTF-8
Codec ID : S_TEXT/UTF8
Codec ID/Info : UTF-8 Plain Text
Duration : 2 h 1 min
Bit rate : 69 b/s
Frame rate : 0.282 FPS
Count of elements : 2062
Stream size : 62.3 KiB (0%)
Language : Japanese
Default : No
Forced : No

Text #17
ID : 19
Format : UTF-8
Codec ID : S_TEXT/UTF8
Codec ID/Info : UTF-8 Plain Text
Duration : 2 h 1 min
Bit rate : 72 b/s
Frame rate : 0.284 FPS
Count of elements : 2080
Stream size : 65.1 KiB (0%)
Language : Korean
Default : No
Forced : No

Text #18
ID : 20
Format : UTF-8
Codec ID : S_TEXT/UTF8
Codec ID/Info : UTF-8 Plain Text
Duration : 2 h 1 min
Bit rate : 62 b/s
Frame rate : 0.278 FPS
Count of elements : 2037
Stream size : 56.1 KiB (0%)
Language : Norwegian Bokmal
Default : No
Forced : No

Text #19
ID : 21
Format : UTF-8
Codec ID : S_TEXT/UTF8
Codec ID/Info : UTF-8 Plain Text
Duration : 2 h 1 min
Bit rate : 57 b/s
Frame rate : 0.234 FPS
Count of elements : 1715
Stream size : 51.5 KiB (0%)
Language : Dutch
Default : No
Forced : No

Text #20
ID : 22
Format : UTF-8
Codec ID : S_TEXT/UTF8
Codec ID/Info : UTF-8 Plain Text
Duration : 2 h 1 min
Bit rate : 55 b/s
Frame rate : 0.263 FPS
Count of elements : 1922
Stream size : 49.5 KiB (0%)
Language : Polish
Default : No
Forced : No

Text #21
ID : 23
Format : UTF-8
Codec ID : S_TEXT/UTF8
Codec ID/Info : UTF-8 Plain Text
Duration : 2 h 1 min
Bit rate : 57 b/s
Frame rate : 0.280 FPS
Count of elements : 2050
Stream size : 51.3 KiB (0%)
Title : Brazilian
Language : Portuguese
Default : No
Forced : No

Text #22
ID : 24
Format : UTF-8
Codec ID : S_TEXT/UTF8
Codec ID/Info : UTF-8 Plain Text
Duration : 2 h 1 min
Bit rate : 64 b/s
Frame rate : 0.244 FPS
Count of elements : 1783
Stream size : 57.3 KiB (0%)
Language : Portuguese
Default : No
Forced : No

Text #23
ID : 25
Format : UTF-8
Codec ID : S_TEXT/UTF8
Codec ID/Info : UTF-8 Plain Text
Duration : 2 h 1 min
Bit rate : 65 b/s
Frame rate : 0.269 FPS
Count of elements : 1968
Stream size : 58.1 KiB (0%)
Language : Romanian
Default : No
Forced : No

Text #24
ID : 26
Format : UTF-8
Codec ID : S_TEXT/UTF8
Codec ID/Info : UTF-8 Plain Text
Duration : 2 h 1 min
Bit rate : 93 b/s
Frame rate : 0.284 FPS
Count of elements : 2077
Stream size : 83.2 KiB (0%)
Language : Russian
Default : No
Forced : No

Text #25
ID : 27
Format : UTF-8
Codec ID : S_TEXT/UTF8
Codec ID/Info : UTF-8 Plain Text
Duration : 2 h 2 min
Bit rate : 59 b/s
Frame rate : 0.225 FPS
Count of elements : 1648
Stream size : 53.2 KiB (0%)
Language : Swedish
Default : No
Forced : No

Text #26
ID : 28
Format : UTF-8
Codec ID : S_TEXT/UTF8
Codec ID/Info : UTF-8 Plain Text
Duration : 2 h 1 min
Bit rate : 161 b/s
Frame rate : 0.284 FPS
Count of elements : 2079
Stream size : 144 KiB (0%)
Language : Thai
Default : No
Forced : No

Text #27
ID : 29
Format : UTF-8
Codec ID : S_TEXT/UTF8
Codec ID/Info : UTF-8 Plain Text
Duration : 2 h 1 min
Bit rate : 56 b/s
Frame rate : 0.265 FPS
Count of elements : 1938
Stream size : 50.9 KiB (0%)
Language : tlh
Default : No
Forced : No

Text #28
ID : 30
Format : UTF-8
Codec ID : S_TEXT/UTF8
Codec ID/Info : UTF-8 Plain Text
Duration : 2 h 1 min
Bit rate : 60 b/s
Frame rate : 0.252 FPS
Count of elements : 1844
Stream size : 54.4 KiB (0%)
Language : Turkish
Default : No
Forced : No

Text #29
ID : 31
Format : UTF-8
Codec ID : S_TEXT/UTF8
Codec ID/Info : UTF-8 Plain Text
Duration : 2 h 1 min
Bit rate : 80 b/s
Frame rate : 0.268 FPS
Count of elements : 1960
Stream size : 71.8 KiB (0%)
Language : Vietnamese
Default : No
Forced : No

Text #30
ID : 32
Format : UTF-8
Codec ID : S_TEXT/UTF8
Codec ID/Info : UTF-8 Plain Text
Duration : 2 h 2 min
Bit rate : 59 b/s
Frame rate : 0.285 FPS
Count of elements : 2090
Stream size : 53.5 KiB (0%)
Title : 中文(简体)
Language : 中文
Default : No
Forced : No

Text #31
ID : 33
Format : UTF-8
Codec ID : S_TEXT/UTF8
Codec ID/Info : UTF-8 Plain Text
Duration : 2 h 1 min
Bit rate : 59 b/s
Frame rate : 0.271 FPS
Count of elements : 1981
Stream size : 53.2 KiB (0%)
Title : 中文(繁体)
Language : 中文
Default : No
Forced : No


Menu
01:58:00.000 : en:Credits


资源速度为零或资源敏感被和谐时,推荐使用qBittorrent等下载软件,有条件的推荐115更好的下载软件!

下载地址:


游客,如果您要查看本帖隐藏内容请回复





上一篇:闪电舞 / Flashdance (1983) 4K高清版本下载
下一篇:绿灯侠:畏吾神光 (2022) 4K高清版本下载
回复

使用道具 举报

81

主题

1621

帖子

4709

积分

4K家园VIP

Rank: 9Rank: 9Rank: 9

积分
4709
发表于 2022-7-25 22:04:25 | 显示全部楼层
楼主呀,,,您太有才了。。。
回复 支持 反对

使用道具 举报

1

主题

1379

帖子

3959

积分

4K家园VIP

Rank: 9Rank: 9Rank: 9

积分
3959
发表于 2022-7-25 23:09:18 来自手机 | 显示全部楼层
4K电影下个试试
回复 支持 反对

使用道具 举报

2

主题

1464

帖子

4414

积分

4K家园VIP

Rank: 9Rank: 9Rank: 9

积分
4414
发表于 2022-7-25 23:11:34 | 显示全部楼层
感谢分享
回复 支持 反对

使用道具 举报

3

主题

1388

帖子

4182

积分

4K家园VIP

Rank: 9Rank: 9Rank: 9

积分
4182
发表于 2022-7-25 23:59:42 | 显示全部楼层
谢谢楼主
回复 支持 反对

使用道具 举报

0

主题

1418

帖子

4104

积分

4K家园VIP

Rank: 9Rank: 9Rank: 9

积分
4104
发表于 2022-7-26 00:48:56 | 显示全部楼层
支持一下楼主,顶起来
回复 支持 反对

使用道具 举报

主题

帖子

0

积分

新手上路

Rank: 1

积分
0
发表于 2022-7-27 11:13:57 | 显示全部楼层
谢谢楼主
回复

使用道具 举报

2

主题

1463

帖子

4241

积分

4K家园VIP

Rank: 9Rank: 9Rank: 9

积分
4241
发表于 2022-11-9 06:20:53 | 显示全部楼层
在撸一遍。。。
回复 支持 反对

使用道具 举报

2

主题

1403

帖子

4077

积分

4K家园VIP

Rank: 9Rank: 9Rank: 9

积分
4077
发表于 2022-11-9 15:23:14 | 显示全部楼层
分享的不错,希望楼主继续分享
回复 支持 反对

使用道具 举报

2

主题

1402

帖子

4230

积分

4K家园VIP

Rank: 9Rank: 9Rank: 9

积分
4230
发表于 2022-11-12 06:38:10 | 显示全部楼层
前排支持下了哦~
回复 支持 反对

使用道具 举报

您需要登录后才可以回帖 登录 | 立即注册

本版积分规则

精彩图文
Archiver|手机版|TAG|Sitemap|新帖|专题|联系我们:邮箱: 4kjia.com@gmail.com   

4k家园   ©2019