[4K电影] 附属美丽[简繁粤中字]/Collateral Beauty(2016)4K高清版本下载

[复制链接]

主题

帖子

0

积分

超级版主

Rank: 8Rank: 8

积分
0
 楼主| 发表于 2022-7-26 14:35:23 | 显示全部楼层 |阅读模式

QQ图片20220726143331_副本.png

◎译  名 附属美丽/最美丽的安排(港)/最美的安排(台)/附属美人/担保美人
◎片  名 Collateral Beauty
◎年  代 2016
◎国  家 美国
◎类  别 剧情
◎语  言 英语
◎上映日期 2016-12-16(美国)
◎IMDb评分 6.7/10 from 99846 users
◎IMDb链接 http://www.imdb.com/title/tt4682786/
◎豆瓣评分 6.8/10 from 10268 users
◎豆瓣链接 https://movie.douban.com/subject/26389329/ ;
◎片  长 97分钟
◎导  演 大卫·弗兰科尔 David Frankel
◎主  演 威尔·史密斯 Will Smith
       爱德华·诺顿 Edward Norton
       凯特·温丝莱特 Kate Winslet
       迈克尔·佩纳 Michael Peña
       海伦·米伦 Helen Mirren
       娜奥米·哈里斯 Naomie Harris
       凯拉·奈特莉 Keira Knightley
       雅各布·拉提摩尔 Jacob Latimore
       安·唐德 Ann Dowd
       莉莎·科伦·塞亚斯 Liza Colón-Zayas
       娜塔莉·戈尔德 Natalie Gold
       凯莱·罗杰斯 Kylie Rogers
       雪莉·拉米瑞克 Shirley Rumierk
       艾丽莎·奇塔姆 Alyssa Cheatham
       本杰明·斯奈德 Benjamin Snyder

◎简  介

  影片剧本由知名编剧阿兰·娄伯(《华尔街:金钱永不眠》《随波逐流》)操刀,片方PalmStar Media花费225万从他手中买下剧本。影片讲述了一个纽约广告代理商在经历一系列的悲剧后,生活发生翻天覆地的变化的故事,他的同事为了让他摆脱低谷而设计了一系列不同寻常的计划,计划起效了,却是以一种任何人都没想到的方式。

◎获奖情况

  第37届金酸莓奖  (2017)
  最差银幕组合(提名)

Video
ID : 1
Format : HEVC
Format/Info : High Efficiency Video Coding
Format profile : Main 10@L5@High
Codec ID : V_MPEGH/ISO/HEVC
Duration : 1 h 36 min
Bit rate : 24.9 Mb/s
Width : 3 840 pixels
Height : 2 160 pixels
Display aspect ratio : 16:9
Frame rate mode : Constant
Frame rate : 23.976 (24000/1001) FPS
Color space : YUV
Chroma subsampling : 4:2:0 (Type 2)
Bit depth : 10 bits
Bits/(Pixel*Frame) : 0.125
Stream size : 16.8 GiB (89%)
Language : English
Default : Yes
Forced : No
Color range : Limited
Color primaries : BT.709
Transfer characteristics : BT.709
Matrix coefficients : BT.709

Audio
ID : 2
Format : DTS XLL
Format/Info : Digital Theater Systems
Commercial name : DTS-HD Master Audio
Codec ID : A_DTS
Duration : 1 h 36 min
Bit rate mode : Variable
Bit rate : 3 194 kb/s
Channel(s) : 6 channels
Channel layout : C L R Ls Rs LFE
Sampling rate : 48.0 kHz
Frame rate : 93.750 FPS (512 SPF)
Bit depth : 24 bits
Compression mode : Lossless
Delay relative to video : 10 ms
Stream size : 2.16 GiB (11%)
Language : English
Default : Yes
Forced : No

Text #1
ID : 3
Format : UTF-8
Codec ID : S_TEXT/UTF8
Codec ID/Info : UTF-8 Plain Text
Duration : 1 h 35 min
Bit rate : 64 b/s
Frame rate : 0.254 FPS
Count of elements : 1461
Stream size : 45.3 KiB (0%)
Language : English
Default : No
Forced : No

Text #2
ID : 4
Format : UTF-8
Codec ID : S_TEXT/UTF8
Codec ID/Info : UTF-8 Plain Text
Duration : 1 h 36 min
Bit rate : 69 b/s
Frame rate : 0.275 FPS
Count of elements : 1586
Stream size : 49.2 KiB (0%)
Title : SDH
Language : English
Default : No
Forced : No

Text #3
ID : 5
Format : UTF-8
Codec ID : S_TEXT/UTF8
Codec ID/Info : UTF-8 Plain Text
Duration : 1 h 36 min
Bit rate : 90 b/s
Frame rate : 0.252 FPS
Count of elements : 1450
Stream size : 63.7 KiB (0%)
Language : Arabic
Default : No
Forced : No

Text #4
ID : 6
Format : UTF-8
Codec ID : S_TEXT/UTF8
Codec ID/Info : UTF-8 Plain Text
Duration : 1 h 36 min
Bit rate : 92 b/s
Frame rate : 0.255 FPS
Count of elements : 1469
Stream size : 65.2 KiB (0%)
Language : Bulgarian
Default : No
Forced : No

Text #5
ID : 7
Format : UTF-8
Codec ID : S_TEXT/UTF8
Codec ID/Info : UTF-8 Plain Text
Duration : 1 h 36 min
Bit rate : 53 b/s
Frame rate : 0.250 FPS
Count of elements : 1439
Stream size : 37.4 KiB (0%)
Title : 中文(简体)
Language : 中文
Default : No
Forced : No

Text #6
ID : 8
Format : UTF-8
Codec ID : S_TEXT/UTF8
Codec ID/Info : UTF-8 Plain Text
Duration : 1 h 36 min
Bit rate : 51 b/s
Frame rate : 0.238 FPS
Count of elements : 1372
Stream size : 36.2 KiB (0%)
Title : 中文(繁体)
Language : 中文
Default : No
Forced : No


Text #7
ID : 9
Format : UTF-8
Codec ID : S_TEXT/UTF8
Codec ID/Info : UTF-8 Plain Text
Duration : 1 h 36 min
Bit rate : 60 b/s
Frame rate : 0.255 FPS
Count of elements : 1469
Stream size : 42.9 KiB (0%)
Language : Czech
Default : No
Forced : No

Text #8
ID : 10
Format : UTF-8
Codec ID : S_TEXT/UTF8
Codec ID/Info : UTF-8 Plain Text
Duration : 1 h 36 min
Bit rate : 55 b/s
Frame rate : 0.179 FPS
Count of elements : 1032
Stream size : 39.3 KiB (0%)
Language : Danish
Default : No
Forced : No

Text #9
ID : 11
Format : UTF-8
Codec ID : S_TEXT/UTF8
Codec ID/Info : UTF-8 Plain Text
Duration : 1 h 30 min
Bit rate : 79 b/s
Frame rate : 0.270 FPS
Count of elements : 1472
Stream size : 52.9 KiB (0%)
Language : German
Default : No
Forced : No

Text #10
ID : 12
Format : UTF-8
Codec ID : S_TEXT/UTF8
Codec ID/Info : UTF-8 Plain Text
Duration : 1 h 36 min
Bit rate : 112 b/s
Frame rate : 0.254 FPS
Count of elements : 1462
Stream size : 79.0 KiB (0%)
Language : Greek
Default : No
Forced : No

Text #11
ID : 13
Format : UTF-8
Codec ID : S_TEXT/UTF8
Codec ID/Info : UTF-8 Plain Text
Duration : 1 h 36 min
Bit rate : 60 b/s
Frame rate : 0.254 FPS
Count of elements : 1465
Stream size : 42.4 KiB (0%)
Title : Latin American
Language : Spanish
Default : No
Forced : No

Text #12
ID : 14
Format : UTF-8
Codec ID : S_TEXT/UTF8
Codec ID/Info : UTF-8 Plain Text
Duration : 1 h 36 min
Bit rate : 59 b/s
Frame rate : 0.245 FPS
Count of elements : 1414
Stream size : 41.8 KiB (0%)
Language : Spanish
Default : No
Forced : No

Text #13
ID : 15
Format : UTF-8
Codec ID : S_TEXT/UTF8
Codec ID/Info : UTF-8 Plain Text
Duration : 1 h 36 min
Bit rate : 55 b/s
Frame rate : 0.251 FPS
Count of elements : 1444
Stream size : 39.3 KiB (0%)
Language : Estonian
Default : No
Forced : No

Text #14
ID : 16
Format : UTF-8
Codec ID : S_TEXT/UTF8
Codec ID/Info : UTF-8 Plain Text
Duration : 1 h 36 min
Bit rate : 57 b/s
Frame rate : 0.251 FPS
Count of elements : 1449
Stream size : 40.7 KiB (0%)
Language : Finnish
Default : No
Forced : No

Text #15
ID : 17
Format : UTF-8
Codec ID : S_TEXT/UTF8
Codec ID/Info : UTF-8 Plain Text
Duration : 1 h 36 min
Bit rate : 56 b/s
Frame rate : 0.214 FPS
Count of elements : 1231
Stream size : 39.9 KiB (0%)
Language : French
Default : No
Forced : No

Text #16
ID : 18
Format : UTF-8
Codec ID : S_TEXT/UTF8
Codec ID/Info : UTF-8 Plain Text
Duration : 1 h 36 min
Bit rate : 94 b/s
Frame rate : 0.255 FPS
Count of elements : 1472
Stream size : 66.4 KiB (0%)
Language : Hebrew
Default : No
Forced : No

Text #17
ID : 19
Format : UTF-8
Codec ID : S_TEXT/UTF8
Codec ID/Info : UTF-8 Plain Text
Duration : 1 h 36 min
Bit rate : 57 b/s
Frame rate : 0.251 FPS
Count of elements : 1448
Stream size : 40.6 KiB (0%)
Language : Hungarian
Default : No
Forced : No

Text #18
ID : 20
Format : UTF-8
Codec ID : S_TEXT/UTF8
Codec ID/Info : UTF-8 Plain Text
Duration : 1 h 36 min
Bit rate : 53 b/s
Frame rate : 0.250 FPS
Count of elements : 1440
Stream size : 38.0 KiB (0%)
Language : Italian
Default : No
Forced : No

Text #19
ID : 21
Format : UTF-8
Codec ID : S_TEXT/UTF8
Codec ID/Info : UTF-8 Plain Text
Duration : 1 h 35 min
Bit rate : 52 b/s
Frame rate : 0.223 FPS
Count of elements : 1287
Stream size : 37.1 KiB (0%)
Language : Japanese
Default : No
Forced : No

Text #20
ID : 22
Format : UTF-8
Codec ID : S_TEXT/UTF8
Codec ID/Info : UTF-8 Plain Text
Duration : 1 h 30 min
Bit rate : 58 b/s
Frame rate : 0.265 FPS
Count of elements : 1444
Stream size : 38.6 KiB (0%)
Language : Korean
Default : No
Forced : No

Text #21
ID : 23
Format : UTF-8
Codec ID : S_TEXT/UTF8
Codec ID/Info : UTF-8 Plain Text
Duration : 1 h 36 min
Bit rate : 62 b/s
Frame rate : 0.250 FPS
Count of elements : 1441
Stream size : 43.8 KiB (0%)
Language : Lithuanian
Default : No
Forced : No

Text #22
ID : 24
Format : UTF-8
Codec ID : S_TEXT/UTF8
Codec ID/Info : UTF-8 Plain Text
Duration : 1 h 36 min
Bit rate : 57 b/s
Frame rate : 0.251 FPS
Count of elements : 1448
Stream size : 40.7 KiB (0%)
Language : Latvian
Default : No
Forced : No

Text #23
ID : 25
Format : UTF-8
Codec ID : S_TEXT/UTF8
Codec ID/Info : UTF-8 Plain Text
Duration : 1 h 36 min
Bit rate : 52 b/s
Frame rate : 0.194 FPS
Count of elements : 1116
Stream size : 36.8 KiB (0%)
Language : Dutch
Default : No
Forced : No

Text #24
ID : 26
Format : UTF-8
Codec ID : S_TEXT/UTF8
Codec ID/Info : UTF-8 Plain Text
Duration : 1 h 36 min
Bit rate : 52 b/s
Frame rate : 0.191 FPS
Count of elements : 1101
Stream size : 36.6 KiB (0%)
Language : Norwegian
Default : No
Forced : No

Text #25
ID : 27
Format : UTF-8
Codec ID : S_TEXT/UTF8
Codec ID/Info : UTF-8 Plain Text
Duration : 1 h 36 min
Bit rate : 52 b/s
Frame rate : 0.246 FPS
Count of elements : 1417
Stream size : 36.8 KiB (0%)
Language : Polish
Default : No
Forced : No

Text #26
ID : 28
Format : UTF-8
Codec ID : S_TEXT/UTF8
Codec ID/Info : UTF-8 Plain Text
Duration : 1 h 36 min
Bit rate : 59 b/s
Frame rate : 0.253 FPS
Count of elements : 1460
Stream size : 42.1 KiB (0%)
Title : Brazilian
Language : Portuguese
Default : No
Forced : No

Text #27
ID : 29
Format : UTF-8
Codec ID : S_TEXT/UTF8
Codec ID/Info : UTF-8 Plain Text
Duration : 1 h 36 min
Bit rate : 59 b/s
Frame rate : 0.255 FPS
Count of elements : 1470
Stream size : 42.1 KiB (0%)
Language : Portuguese
Default : No
Forced : No

Text #28
ID : 30
Format : UTF-8
Codec ID : S_TEXT/UTF8
Codec ID/Info : UTF-8 Plain Text
Duration : 1 h 36 min
Bit rate : 97 b/s
Frame rate : 0.252 FPS
Count of elements : 1450
Stream size : 68.8 KiB (0%)
Language : Russian
Default : No
Forced : No

Text #29
ID : 31
Format : UTF-8
Codec ID : S_TEXT/UTF8
Codec ID/Info : UTF-8 Plain Text
Duration : 1 h 36 min
Bit rate : 53 b/s
Frame rate : 0.186 FPS
Count of elements : 1072
Stream size : 37.7 KiB (0%)
Language : Slovenian
Default : No
Forced : No

Text #30
ID : 32
Format : UTF-8
Codec ID : S_TEXT/UTF8
Codec ID/Info : UTF-8 Plain Text
Duration : 1 h 36 min
Bit rate : 62 b/s
Frame rate : 0.252 FPS
Count of elements : 1451
Stream size : 44.3 KiB (0%)
Language : Swedish
Default : No
Forced : No

Text #31
ID : 33
Format : UTF-8
Codec ID : S_TEXT/UTF8
Codec ID/Info : UTF-8 Plain Text
Duration : 1 h 36 min
Bit rate : 145 b/s
Frame rate : 0.255 FPS
Count of elements : 1470
Stream size : 103 KiB (0%)
Language : Thai
Default : No
Forced : No

Text #32
ID : 34
Format : UTF-8
Codec ID : S_TEXT/UTF8
Codec ID/Info : UTF-8 Plain Text
Duration : 1 h 36 min
Bit rate : 61 b/s
Frame rate : 0.255 FPS
Count of elements : 1470
Stream size : 43.1 KiB (0%)
Language : Turkish
Default : No
Forced : No

Text #33
ID : 35
Format : UTF-8
Codec ID : S_TEXT/UTF8
Codec ID/Info : UTF-8 Plain Text
Duration : 1 h 36 min
Bit rate : 49 b/s
Frame rate : 0.256 FPS
Count of elements : 1472
Stream size : 35.0 KiB (0%)
Title : 中文(粤语)
Language : 中文
Default : No
Forced : No


Menu
00:00:00.000 : en:Chapter 01
00:10:20.000 : en:Chapter 02
00:21:30.000 : en:Chapter 03
00:33:57.000 : en:Chapter 04
00:42:43.000 : en:Chapter 05
00:53:07.000 : en:Chapter 06
01:01:04.000 : en:Chapter 07
01:08:55.000 : en:Chapter 08
01:22:15.000 : en:Chapter 09
01:33:08.000 : en:Chapter 10
资源速度为零或资源敏感被和谐时,推荐使用qBittorrent等下载软件,有条件的推荐115更好的下载软件!

下载地址:


游客,如果您要查看本帖隐藏内容请回复

游客,如果您要查看本帖隐藏内容请回复



相关其他4K高清版本链接:[4K首发资源]《附属美丽/最美的安排(台)》4K高清下载/9.20GB





上一篇:祝祷 / Benediction‎ (2021) 4K高清版本下载
下一篇:灰影人 [简繁中字] / The Gray Man (2022) 4K高清版本下载
回复

使用道具 举报

4

主题

1762

帖子

4906

积分

4K家园VIP

Rank: 9Rank: 9Rank: 9

积分
4906
发表于 2022-7-26 14:35:27 | 显示全部楼层
为保住菊花,这个一定得回复!
回复 支持 反对

使用道具 举报

2

主题

1215

帖子

3663

积分

4K家园VIP

Rank: 9Rank: 9Rank: 9

积分
3663
发表于 2022-7-26 14:35:28 | 显示全部楼层
占位编辑
回复 支持 反对

使用道具 举报

1

主题

1693

帖子

4701

积分

4K家园VIP

Rank: 9Rank: 9Rank: 9

积分
4701
发表于 2022-7-26 22:04:45 | 显示全部楼层
在撸一遍。。。
回复 支持 反对

使用道具 举报

2

主题

1394

帖子

4198

积分

4K家园VIP

Rank: 9Rank: 9Rank: 9

积分
4198
发表于 2022-7-27 02:17:43 | 显示全部楼层
传说中的沙发???哇卡卡
回复 支持 反对

使用道具 举报

47

主题

1547

帖子

4459

积分

4K家园VIP

Rank: 9Rank: 9Rank: 9

积分
4459
发表于 2022-7-27 11:49:47 | 显示全部楼层
路过的帮顶
回复 支持 反对

使用道具 举报

您需要登录后才可以回帖 登录 | 立即注册

本版积分规则

精彩图文
Archiver|手机版|TAG|Sitemap|新帖|专题|联系我们:邮箱: 4kjia.com@gmail.com   

4k家园   ©2019