[4K UHD 蓝光原盘] 阿凡达[加长版/国语/简繁英]/Avatar‎ (2009)4K蓝光REMUX版本下载

[复制链接]

1916

主题

2005

帖子

2万

积分

超级版主

Rank: 8Rank: 8

积分
20377
 楼主| 发表于 2022-7-27 13:47:11 | 显示全部楼层 |阅读模式
本帖最后由 没完没了 于 2022-7-28 20:38 编辑

144855kw8kjf99jwqjhmzi.png

◎译  名 阿凡达 / 化身 / 天神下凡(港) / 异次元战神 / 神之化身
◎片  名 Avatar
◎年  代 2009
◎产  地 美国 / 英国
◎类  别 动作 / 科幻 / 战争 / 冒险
◎语  言 英语 / 西班牙语
◎上映日期 2009-12-18(美国)
◎IMDb评分 7.8/10 from 1211614 users
◎IMDb链接 http://www.imdb.com/title/tt0499549
◎豆瓣评分 8.8/10 from 1279843 users
◎豆瓣链接 https://movie.douban.com/subject/1652587/
◎片  长 178分钟[加长版]
◎导  演 詹姆斯·卡梅隆 James Cameron
◎编  剧 詹姆斯·卡梅隆 James Cameron
◎主  演 萨姆·沃辛顿 Sam Worthington
       佐伊·索尔达娜 Zoe Saldana
       西格妮·韦弗 Sigourney Weaver
       史蒂芬·朗 Stephen Lang
       米歇尔·罗德里格兹 Michelle Rodriguez
       吉奥瓦尼·瑞比西 Giovanni Ribisi
       乔·大卫·摩尔  Joel David Moore
       希· 韦斯·斯塔迪 Wes Studi
       拉兹·阿隆索 Laz Alonso
       迪利普·劳 Dileep Rao
       马特·杰拉德 Matt Gerald
       肖恩·安东尼·莫兰 Sean Anthony Moran

◎简  介  

  战斗中负伤而下身瘫痪的前海军战士杰克•萨利(萨姆•沃辛顿 Sam Worthington 饰)决定替死去的同胞哥哥来到潘多拉星操纵格蕾丝博士(西格妮•韦弗 Sigourney Weaver 饰)用人类基因与当地纳美部族基因结合创造出的 “阿凡达” 混血生物。杰克的目的是打入纳美部落,外交说服他们自愿离开世代居住的家园,从而SecFor公司可砍伐殆尽该地区的原始森林,开采地下昂贵的“不可得”矿。在探索潘多拉星的过程中,杰克遇到了纳美部落的公主娜蒂瑞(佐伊•索尔达娜 Zoe Saldana 饰),向她学习了纳美人的生存技能与对待自然的态度。与此同时,SecFor公司的经理和军方代表上校迈尔斯(史蒂芬•朗 Stephen Lang 饰)逐渐丧失耐心,决定诉诸武力驱赶纳美人……
本片采用3D技术拍摄,共耗资5亿美元制作发行,是电影史上最为昂贵的作品。本片荣获第82届奥斯卡最佳摄影、最佳视觉效果、最佳艺术指导等3项大奖。

◎获奖情况  

  第82届奥斯卡金像奖(2010)
  最佳影片(提名) 詹姆斯·卡梅隆 / 乔恩·兰道
  最佳导演(提名) 詹姆斯·卡梅隆
  最佳摄影 摩洛·斐欧拉
  最佳剪辑(提名) 詹姆斯·卡梅隆 / Stephen E. Rivkin / John Refoua
  最佳视觉效果 斯蒂芬·罗森包姆 / 乔·莱特瑞 / Richard Baneham / Andrew R. Jones
  最佳混音(提名) 托尼·约翰逊 / 加里·萨默斯 / Andy Nelson / 克里斯托弗·博伊斯
  最佳音效剪辑(提名) Gwendolyn Yates Whittle / 克里斯托弗·博伊斯
  最佳艺术指导 Kim Sinclair / 瑞克·卡特 / 罗伯特·斯特罗姆伯格
  最佳原创配乐(提名) 詹姆斯·霍纳

  第67届威尼斯电影节(2010)
  3-D电影奖 年度最具创意立体电影 詹姆斯·卡梅隆

  第67届金球奖(2010)
  电影类 最佳剧情片
  电影类 最佳导演 詹姆斯·卡梅隆
  电影类 最佳原创配乐(提名) 詹姆斯·霍纳
  电影类 最佳原创歌曲(提名) Simon Franglen / 詹姆斯·霍纳 / Kuk Harrell

  第34届日本电影学院奖(2011)
  最佳外语片

  第19届MTV电影奖(2010)
  MTV电影奖 年度电影(提名)
  MTV电影奖 最佳女演员(提名) 佐伊·索尔达娜
  MTV电影奖 最佳吻戏(提名) 佐伊·索尔达娜 / 萨姆·沃辛顿
  MTV电影奖 最佳打斗(提名) 史蒂芬·朗 / 萨姆·沃辛顿
  MTV电影奖 最佳反派(提名) 史蒂芬·朗

  第14届中国电影华表奖(2011)
  优秀译制片奖
  第75届纽约影评人协会奖(2009)
  最佳摄影(提名) 摩洛·斐欧拉

  第14届圣地亚哥影评人协会奖(2009)
  最佳导演(提名) 詹姆斯·卡梅隆

  第22届芝加哥影评人协会奖(2009)
  最佳摄影(提名) 摩洛·斐欧拉
  最佳原创配乐(提名) 詹姆斯·霍纳

  第9届凤凰城影评人协会奖(2009)
  最佳摄影 摩洛·斐欧拉
  最佳剪辑 詹姆斯·卡梅隆 / Stephen E. Rivkin / John Refoua
  最佳艺术指导 罗伯特·斯特罗姆伯格 / 瑞克·卡特
  最佳视觉效果

  第35届报知映画赏(2010)
  海外作品奖 詹姆斯·卡梅隆
  第12届美国青少年选择奖(2010)
  最佳科幻电影
  最佳科幻电影男演员 萨姆·沃辛顿
  最佳科幻电影女演员 佐伊·索尔达娜
  最佳电影反派(提名) 史蒂芬·朗
  最佳电影打斗(提名) 史蒂芬·朗 / 萨姆·沃辛顿
  Choice Movie: Hissy Fit(提名) 吉奥瓦尼·瑞比西
General
Complete name                  : D:\电影\[4Kjia]阿凡达(国语简繁中字+英字)Avatar (Extended Collector's Edition).2009.BluRay.REMUX.HEVC.AI_UPSCALE_3840x2160_prob-1_SDR_Final-alang.mkv
Format                         : Matroska
Format version                 : Version 4
File size                      : 84.9 GiB
Duration                       : 2 h 58 min
Overall bit rate mode          : Variable
Overall bit rate               : 68.2 Mb/s
Movie name                     : Аватар (Расширенная версия).BDRemux_H264_1920_1080p_24fps_10000kbps_16x9_2.00x_3840x2160_prob-1(3)
Encoded date                   : UTC 2022-07-26 10:15:28
Writing application            : mkvmerge v68.0.0 ('The Curtain') 64-bit
Writing library                : libebml v1.4.2 + libmatroska v1.6.4
Attachments                    : PapyrusCyr.ttf / tahoma.ttf / 標楷體.ttf / timesi.ttf

Video
ID                             : 1
Format                         : HEVC
Format/Info                    : High Efficiency Video Coding
Format profile                 : Main@L5.2@Main
Codec ID                       : V_MPEGH/ISO/HEVC
Duration                       : 2 h 58 min
Bit rate                       : 62.6 Mb/s
Width                          : 3 840 pixels
Height                         : 2 160 pixels
Display aspect ratio           : 16:9
Frame rate mode                : Constant
Frame rate                     : 23.976 (24000/1001) FPS
Color space                    : YUV
Chroma subsampling             : 4:2:0
Bit depth                      : 8 bits
Bits/(Pixel*Frame)             : 0.315
Stream size                    : 77.9 GiB (92%)
Title                          : 阿凡达 4K蓝光REMUX
Language                       : English
Default                        : Yes
Forced                         : No

Audio #1
ID                             : 2
Format                         : DTS XLL
Format/Info                    : Digital Theater Systems
Commercial name                : DTS-HD Master Audio
Codec ID                       : A_DTS
Duration                       : 2 h 58 min
Bit rate mode                  : Variable
Bit rate                       : 4 133 kb/s
Channel(s)                     : 6 channels
Channel layout                 : C L R Ls Rs LFE
Sampling rate                  : 48.0 kHz
Frame rate                     : 93.750 FPS (512 SPF)
Bit depth                      : 24 bits
Compression mode               : Lossless
Stream size                    : 5.14 GiB (6%)
Title                          : 英语  DTS-HD MA 4133 kbps
Language                       : English
Default                        : No
Forced                         : No

Audio #2
ID                             : 3
Format                         : DTS
Format/Info                    : Digital Theater Systems
Codec ID                       : A_DTS
Duration                       : 2 h 58 min
Bit rate mode                  : Constant
Bit rate                       : 1 510 kb/s
Channel(s)                     : 6 channels
Channel layout                 : C L R Ls Rs LFE
Sampling rate                  : 48.0 kHz
Frame rate                     : 93.750 FPS (512 SPF)
Bit depth                      : 24 bits
Compression mode               : Lossy
Stream size                    : 1.88 GiB (2%)
Title                          : 国语(简体&英文)
Language                       : Chinese
Default                        : No
Forced                         : Yes

Text
ID                             : 4
Format                         : UTF-8
Codec ID                       : S_TEXT/UTF8
Codec ID/Info                  : UTF-8 Plain Text
Duration                       : 2 h 49 min
Bit rate                       : 77 b/s
Frame rate                     : 0.162 FPS
Count of elements              : 1647
Stream size                    : 95.8 KiB (0%)
Title                          : 繁体&英语
Language                       : Chinese
Default                        : Yes
Forced                         : Yes



General
Complete name                  : D:\[4Kjia]阿凡达(国语简繁中字+英字)(41.74GB)Avatar (2009)BluRay.UHD SDR 2160p HEVC 10bit BT2020 - alang
Format                         : Matroska
Format version                 : Version 4
File size                      : 41.7 GiB
Duration                       : 2 h 58 min
Overall bit rate mode          : Variable
Overall bit rate               : 33.5 Mb/s
Encoded date                   : UTC 2022-07-26 09:31:56
Writing application            : mkvmerge v68.0.0 ('The Curtain') 64-bit
Writing library                : libebml v1.4.2 + libmatroska v1.6.4
Attachments                    : PapyrusCyr.ttf / tahoma.ttf / 標楷體.ttf / timesi.ttf

Video
ID                             : 1
Format                         : HEVC
Format/Info                    : High Efficiency Video Coding
Format profile                 : Main 10@L5.1@Main
Codec ID                       : V_MPEGH/ISO/HEVC
Duration                       : 2 h 58 min
Bit rate                       : 27.9 Mb/s
Width                          : 3 840 pixels
Height                         : 2 160 pixels
Display aspect ratio           : 16:9
Frame rate mode                : Constant
Frame rate                     : 29.970 (30000/1001) FPS
Standard                       : Component
Color space                    : YUV
Chroma subsampling             : 4:2:0
Bit depth                      : 10 bits
Bits/(Pixel*Frame)             : 0.112
Stream size                    : 34.7 GiB (83%)
Title                          : REAL UHD SDR 2160p HEVC 10bit BT2020 - Lisa_Alisa
Language                       : English
Default                        : Yes
Forced                         : Yes
Color range                    : Limited
Color primaries                : BT.2020
Transfer characteristics       : BT.2020 (10-bit)
Matrix coefficients            : BT.2020 non-constant

Audio #1
ID                             : 2
Format                         : DTS XLL
Format/Info                    : Digital Theater Systems
Commercial name                : DTS-HD Master Audio
Codec ID                       : A_DTS
Duration                       : 2 h 58 min
Bit rate mode                  : Variable
Bit rate                       : 4 133 kb/s
Channel(s)                     : 6 channels
Channel layout                 : C L R Ls Rs LFE
Sampling rate                  : 48.0 kHz
Frame rate                     : 93.750 FPS (512 SPF)
Bit depth                      : 24 bits
Compression mode               : Lossless
Stream size                    : 5.14 GiB (12%)
Title                          : ENG DTS-HD MA 5.1 @ 4133 kbps
Language                       : English
Default                        : No
Forced                         : No

Audio #2
ID                             : 3
Format                         : DTS
Format/Info                    : Digital Theater Systems
Codec ID                       : A_DTS
Duration                       : 2 h 58 min
Bit rate mode                  : Constant
Bit rate                       : 1 510 kb/s
Channel(s)                     : 6 channels
Channel layout                 : C L R Ls Rs LFE
Sampling rate                  : 48.0 kHz
Frame rate                     : 93.750 FPS (512 SPF)
Bit depth                      : 24 bits
Compression mode               : Lossy
Stream size                    : 1.88 GiB (5%)
Language                       : Chinese
Default                        : No
Forced                         : No

Text #1
ID                             : 4
Format                         : ASS
Codec ID                       : S_TEXT/ASS
Codec ID/Info                  : Advanced Sub Station Alpha
Duration                       : 2 h 39 min
Bit rate                       : 6 b/s
Frame rate                     : 0.011 FPS
Count of elements              : 109
Compression mode               : Lossless
Stream size                    : 7.34 KiB (0%)
Title                          : Forced
Language                       : English
Default                        : No
Forced                         : No

Text #2
ID                             : 5
Format                         : ASS
Codec ID                       : S_TEXT/ASS
Codec ID/Info                  : Advanced Sub Station Alpha
Duration                       : 2 h 53 min
Bit rate                       : 82 b/s
Frame rate                     : 0.161 FPS
Count of elements              : 1683
Compression mode               : Lossless
Stream size                    : 105 KiB (0%)
Title                          : Full
Language                       : English
Default                        : No
Forced                         : No

Text #3
ID                             : 6
Format                         : UTF-8
Codec ID                       : S_TEXT/UTF8
Codec ID/Info                  : UTF-8 Plain Text
Duration                       : 2 h 57 min
Bit rate                       : 45 b/s
Frame rate                     : 0.207 FPS
Count of elements              : 2203
Stream size                    : 58.6 KiB (0%)
Title                          : SDH
Language                       : English
Default                        : No
Forced                         : No

Text #4
ID                             : 7
Format                         : ASS
Codec ID                       : S_TEXT/ASS
Codec ID/Info                  : Advanced Sub Station Alpha
Duration                       : 2 h 49 min
Bit rate                       : 106 b/s
Frame rate                     : 0.146 FPS
Count of elements              : 1488
Compression mode               : Lossless
Stream size                    : 132 KiB (0%)
Language                       : Chinese
Default                        : Yes
Forced                         : No

Text #5
ID                             : 8
Format                         : PGS
Muxing mode                    : zlib
Codec ID                       : S_HDMV/PGS
Codec ID/Info                  : Picture based subtitle format used on BDs/HD-DVDs
Duration                       : 2 h 50 min
Bit rate                       : 29.4 kb/s
Frame rate                     : 0.271 FPS
Count of elements              : 2771
Stream size                    : 35.8 MiB (0%)
Title                          : 国语
Language                       : Chinese
Default                        : No
Forced                         : No

Text #6
ID                             : 9
Format                         : UTF-8
Codec ID                       : S_TEXT/UTF8
Codec ID/Info                  : UTF-8 Plain Text
Duration                       : 2 h 49 min
Bit rate                       : 77 b/s
Frame rate                     : 0.162 FPS
Count of elements              : 1647
Stream size                    : 95.8 KiB (0%)
Title                          : 中文繁体&英语
Language                       : Chinese
Default                        : Yes
Forced                         : Yes

Text #7
ID                             : 10
Format                         : UTF-8
Codec ID                       : S_TEXT/UTF8
Codec ID/Info                  : UTF-8 Plain Text
Duration                       : 2 h 49 min
Bit rate                       : 74 b/s
Frame rate                     : 0.146 FPS
Count of elements              : 1485
Stream size                    : 92.1 KiB (0%)
Title                          : 中文简体&英语
Language                       : Chinese
Default                        : Yes
Forced                         : Yes

Text #8
ID                             : 11
Format                         : UTF-8
Codec ID                       : S_TEXT/UTF8
Codec ID/Info                  : UTF-8 Plain Text
Duration                       : 2 h 49 min
Bit rate                       : 33 b/s
Frame rate                     : 0.146 FPS
Count of elements              : 1485
Stream size                    : 41.9 KiB (0%)
Title                          : 中文简体
Language                       : Chinese
Default                        : Yes
Forced                         : Yes

Text #9
ID                             : 12
Format                         : ASS
Codec ID                       : S_TEXT/ASS
Codec ID/Info                  : Advanced Sub Station Alpha
Duration                       : 2 h 49 min
Bit rate                       : 74 b/s
Frame rate                     : 0.146 FPS
Count of elements              : 1485
Compression mode               : Lossless
Stream size                    : 93.1 KiB (0%)
Title                          : 中文繁体
Language                       : Chinese
Default                        : Yes
Forced                         : Yes

Menu
00:00:00.000                   : enost Soul
00:05:25.575                   : en:A New World
00:10:12.278                   : en:You Are Not In Kansas Anymore
00:11:47.915                   : en:"This Is Your Avatar Now, Jake ."
00:15:59.208                   : en:"This Is Why We're Here..."
00:17:54.782                   : en:First Awakening
00:23:54.891                   : en:Colonel Quaritch
00:27:54.547                   : en:First Sortie
00:30:27.617                   : en:Abandoned Schoolhouse
00:32:27.904                   : en:Thanator Chase
00:37:16.525                   : en:A Sign
00:39:08.053                   : en:Viperwolves
00:41:18.475                   : en:Neytiri
00:49:16.912                   : en:The Omaticaya Clan
00:55:42.213                   : en:Cover Report
01:01:09.415                   : en:The Hallelujah Mountains
01:07:03.227                   : enearn Fast Or Die
01:11:50.222                   : en:A Mother's Pain
01:15:53.799                   : en:Banshee Rookery
01:22:38.119                   : en:First Flight
01:26:12.709                   : en:Clan Hunt
01:27:42.298                   : enast Shadow
01:33:00.407                   : en:A Son Of the Omaticaya
01:37:36.892                   : en:Willow Glade Destruction
01:44:15.290                   : en:Conflict Escalation
01:50:02.595                   : en:"You Will Never Be One Of The People!"
01:51:53.581                   : en:Assault On Hometree
01:58:30.895                   : en:Aftermath
02:02:13.284                   : en:Escape From Hell's Gate
02:07:51.663                   : en:There's Something We Gotta Do..."
02:09:30.554                   : en:Toruk Macto
02:12:36.615                   : en:"She's Real"
02:16:03.363                   : en:Recruiting The Clans
02:19:31.654                   : enreamble To Battle
02:23:59.630                   : en:Battle For Pandora
02:30:05.079                   : en:Fall Of The Heroes
02:33:56.852                   : en:Eywa
02:40:02.259                   : enuartich Fight
02:45:33.214                   : en:"I See You"
02:46:48.498                   : en:My Brother
02:48:56.793                   : en:Transformation
02:51:32.073                   : en:End Credits

新种推荐使用qBittorrent、uTorrent等下载软件,有条件的推荐115更好的下载软件!

[4Kjia]阿凡达(国语简繁中字+英字)(84.92GB)
Avatar (Extended Collector's Edition).2009.BluRay.REMUX.HEVC.AI_UPSCALE_3840x2160_prob-1_SDR_Final-alang
****此区域为收费内容****    需支付 30 金币后可查看立即购买

说明:保留原有英语音轨及英文字幕,强制添加了国语音轨,繁体﹠英文字幕


[4Kjia]阿凡达(国语简繁中字+英字)(41.74GB)
Avatar (2009)BluRay.UHD SDR 2160p HEVC 10bit BT2020 - alang
****此区域为收费内容****    需支付 30 金币后可查看立即购买

说明:保留原有英语音轨及英文字幕,强制添加了国语音轨,简体﹠英文字幕,繁体﹠英文字幕,简体,繁体

相关其他4K蓝光REMUX版本链接:
阿凡达 [加长版/简繁粤英]/Avatar‎ (2009)4K蓝光REMUX 版本下载
《阿凡达/天神下凡(港)(俄版)》4K蓝光REMUX 版本下载
阿凡达 Avatar(2009) [4K-REMUX+UHD版本下载]



4K QQ,爱心.gif


上一篇:迷失之城[简繁中字]/The Lost City(2022)4K蓝光[原盘+REMUX]版本下载
下一篇:绿灯侠:畏吾神光 (2022)4K蓝光[原盘+REMUX]版本下载
回复

使用道具 举报

1

主题

1368

帖子

4122

积分

4K家园VIP

Rank: 9Rank: 9Rank: 9

积分
4122
发表于 2022-7-27 13:47:14 来自手机 | 显示全部楼层
谢谢楼主
回复 支持 反对

使用道具 举报

48

主题

1553

帖子

4469

积分

4K家园VIP

Rank: 9Rank: 9Rank: 9

积分
4469
发表于 2022-7-27 14:02:08 | 显示全部楼层
4K家园资源不错,前排支持
回复 支持 反对

使用道具 举报

1

主题

1760

帖子

4888

积分

4K家园VIP

Rank: 9Rank: 9Rank: 9

积分
4888
发表于 2022-7-27 14:19:45 | 显示全部楼层
你们要是有4K资源记得分享,别小气
回复 支持 反对

使用道具 举报

0

主题

8668

帖子

2万

积分

4K家园VIP

Rank: 9Rank: 9Rank: 9

积分
20210
发表于 2022-7-27 15:20:42 | 显示全部楼层
太好啦&萬分感謝版主的無私發佈分享%
回复 支持 反对

使用道具 举报

0

主题

1360

帖子

4090

积分

4K家园VIP

Rank: 9Rank: 9Rank: 9

积分
4090
发表于 2022-7-27 15:40:49 | 显示全部楼层
谢谢楼主
回复 支持 反对

使用道具 举报

2

主题

1629

帖子

4487

积分

4K家园VIP

Rank: 9Rank: 9Rank: 9

积分
4487
发表于 2022-7-27 15:52:00 来自手机 | 显示全部楼层
4K家园资源不错,前排支持
回复 支持 反对

使用道具 举报

0

主题

107

帖子

645

积分

新手上路

Rank: 1

积分
645
发表于 2022-7-28 10:39:45 | 显示全部楼层
天神下凡(港
回复 支持 反对

使用道具 举报

0

主题

4

帖子

249

积分

4K家园VIP

Rank: 9Rank: 9Rank: 9

积分
249
发表于 2022-7-28 16:58:40 | 显示全部楼层
没速度啊
回复

使用道具 举报

1916

主题

2005

帖子

2万

积分

超级版主

Rank: 8Rank: 8

积分
20377
 楼主| 发表于 2022-7-28 20:30:31 | 显示全部楼层
本帖最后由 没完没了 于 2022-7-28 20:40 编辑

QQ图片20220728203954.png

有流量啊
QQ图片20220728202934.png
回复 支持 反对

使用道具 举报

您需要登录后才可以回帖 登录 | 立即注册

本版积分规则

精彩图文
Archiver|手机版|TAG|Sitemap|新帖|专题|联系我们:邮箱: 4kjia.com@gmail.com   

4k家园   ©2019