老头子 / The Old Man (2022) 第一季全/4K高清版本下载

[复制链接]

194

主题

217

帖子

2109

积分

版主

Rank: 7Rank: 7Rank: 7

积分
2109
 楼主| 发表于 2022-7-27 13:39:22 | 显示全部楼层 |阅读模式
p2873152765_副本.jpg

◎译  名 老头子/老人/老头
◎片  名 The Old Man
◎年  代 2022
◎产  地 美国
◎类  别 剧情/动作/惊悚
◎语  言 英语
◎上映日期 2022-06-16(美国)
◎IMDb评分 8.1/10 from 14694 users
◎IMDb链接 https://www.imdb.com/title/tt5645432/

◎豆瓣评分 7.4/10 from 503 users
◎豆瓣链接 https://douban.com/subject/27099193/
◎集  数 7
◎导  演 杰特·威尔金森 Jet Wilkinson / 乔·沃茨 Jon Watts
◎编  剧 罗伯特·勒温 Robert Levine / 乔纳森·E·施泰因贝格 Jonathan E. Steinberg / 丹尼尔·克林格曼 Daniel Clingman
◎主  演 杰夫·布里吉斯 Jeff Bridges
       约翰·利思戈 John Lithgow
       艾米·布伦尼曼 Amy Brenneman
       佩吉·瓦哈达特 Pej Vahdat
       法兰·塔希尔 Faran Tahir
       伊桑·瑞恩斯 Ethan Rains
       克里斯·加恩 Chris Gann
       阿莉雅·肖卡特 Alia Shawkat
       纳维德·内加班 Navid Negahban
       克里斯托弗·雷德曼 Christopher Redman
       E·J·博尼拉 E.J. Bonilla
       埃文·沙夫兰 Evan Shafran
       Christos G. Vass Christos G. Vass
       Eric Brenner Eric Brenner
       罗曼·米蒂齐扬 Roman Mitichyan
       奥斯汀·斯托维尔 Austin Stowell
       约旦·布里奇斯 Jordan Bridges
       肯内特·米歇尔 Kenneth Mitchell
       格本加·阿金纳格贝 Gbenga Akinnagbe
       比尔·赫克 Bill Heck
       罗文娜·金 Rowena King
       丽姆·卢巴尼 Leem Lubany
       丁瑞奇 Rich Ting
       David Lowe David Lowe

◎简  介

  “督爷”杰夫·布里吉斯将首次主演剧集。他将出演FX新剧《老人》(The Old Man),改编自Thomas Perry的同名畅销书。布里吉斯饰演的Dan Chase是一个退休的CIA官员,几十年前从CIA逃走,从此低调隐居。但如今一个杀手找上门来,要把他解决。而Chase为了化解麻烦,不得不重访自己的过去……Jon Steinberg和Robert Levine(《黑帆》)编剧并任执行制作人,试播集今年秋天开始制作。

Video
ID : 1
Format : HEVC
Format/Info : High Efficiency Video Coding
Format profile : Main 10@L5.1@Main
Codec ID : V_MPEGH/ISO/HEVC
Duration : 1 h 4 min
Bit rate : 12.3 Mb/s
Width : 3 840 pixels
Height : 2 160 pixels
Display aspect ratio : 16:9
Frame rate mode : Constant
Frame rate : 23.976 (24000/1001) FPS
Color space : YUV
Chroma subsampling : 4:2:0
Bit depth : 10 bits
Bits/(Pixel*Frame) : 0.062
Stream size : 5.55 GiB (95%)
Default : Yes
Forced : No

Audio
ID : 2
Format : E-AC-3
Format/Info : Enhanced AC-3
Commercial name : Dolby Digital Plus
Codec ID : A_EAC3
Duration : 1 h 4 min
Bit rate mode : Constant
Bit rate : 640 kb/s
Channel(s) : 6 channels
Channel layout : L R C LFE Ls Rs
Sampling rate : 48.0 kHz
Frame rate : 31.250 FPS (1536 SPF)
Compression mode : Lossy
Delay relative to video : 5 s 81 ms
Stream size : 295 MiB (5%)
Language : English
Service kind : Complete Main
Default : Yes
Forced : No

Text #1
ID : 3
Format : UTF-8
Codec ID : S_TEXT/UTF8
Codec ID/Info : UTF-8 Plain Text
Duration : 1 h 0 min
Bit rate : 54 b/s
Frame rate : 0.222 FPS
Count of elements : 799
Stream size : 23.9 KiB (0%)
Language : English
Default : No
Forced : No

Text #2
ID : 4
Format : UTF-8
Codec ID : S_TEXT/UTF8
Codec ID/Info : UTF-8 Plain Text
Duration : 1 h 4 min
Bit rate : 53 b/s
Frame rate : 0.223 FPS
Count of elements : 859
Stream size : 25.3 KiB (0%)
Title : SDH
Language : English
Default : No
Forced : No

Menu
00:00:00.000 : en:Begin
00:15:42.000 : en:Chapter 1
00:23:26.000 : en:Chapter 2
00:36:48.000 : en:Chapter 3
00:44:21.000 : en:Chapter 4
00:53:54.000 : en:Chapter 5
01:02:16.000 : en:Chapter 6
01:02:19.000 : en:Chapter 7 - Credits
下载地址:

游客,如果您要查看本帖隐藏内容请回复




上一篇:大步向前走 [简繁粤中字] (2020) 第一季全/4K高清版本下载
下一篇:伊娃·贝隆 / Santa Evita (2022) 第一季全/4K高清版本下载
回复

使用道具 举报

2

主题

1349

帖子

3901

积分

4K家园VIP

Rank: 9Rank: 9Rank: 9

积分
3901
发表于 2022-7-27 13:39:42 | 显示全部楼层
高手啊
回复 支持 反对

使用道具 举报

0

主题

8337

帖子

1万

积分

4K家园VIP

Rank: 9Rank: 9Rank: 9

积分
19391
发表于 2022-7-27 15:22:06 | 显示全部楼层
太好啦&萬分感謝版主的無私發佈分享%
回复 支持 反对

使用道具 举报

1

主题

1428

帖子

4140

积分

4K家园VIP

Rank: 9Rank: 9Rank: 9

积分
4140
发表于 2022-7-28 06:07:50 | 显示全部楼层
1v1飘过
回复 支持 反对

使用道具 举报

51

主题

1518

帖子

4374

积分

4K家园VIP

Rank: 9Rank: 9Rank: 9

积分
4374
发表于 2022-7-29 15:25:48 | 显示全部楼层
看起来好像不错的样子
回复 支持 反对

使用道具 举报

0

主题

1

帖子

6

积分

新手上路

Rank: 1

积分
6
发表于 2022-7-29 22:10:54 来自手机 | 显示全部楼层
gaoshou
回复

使用道具 举报

51

主题

1481

帖子

4347

积分

4K家园VIP

Rank: 9Rank: 9Rank: 9

积分
4347
发表于 2022-7-30 09:58:51 来自手机 | 显示全部楼层
围观 围观 沙发在哪里!!!
回复 支持 反对

使用道具 举报

53

主题

1245

帖子

3803

积分

4K家园VIP

Rank: 9Rank: 9Rank: 9

积分
3803
发表于 2022-8-2 04:12:23 | 显示全部楼层
额.....这个可以有
回复 支持 反对

使用道具 举报

您需要登录后才可以回帖 登录 | 立即注册

本版积分规则

精彩图文
Archiver|手机版|TAG|Sitemap|新帖|专题|联系我们:邮箱: 4kjia.com@gmail.com   

4k家园   ©2019