伊娃·贝隆 / Santa Evita (2022) 第一季全/4K高清版本下载

[复制链接]

主题

帖子

0

积分

超级版主

Rank: 8Rank: 8

积分
0
 楼主| 发表于 2022-7-27 13:44:54 | 显示全部楼层 |阅读模式
本帖最后由 美剧小虾 于 2022-8-4 12:00 编辑

p2876485843.jpg

◎译  名 伊娃·贝隆/永不凋谢的玫瑰
◎片  名 Santa Evita
◎年  代 2022
◎产  地 阿根廷
◎类  别 传记
◎语  言 西班牙语
◎上映日期 2022-02-26(阿根廷)/2022-07-26(美国)
◎IMDb评分 6.3/10 from 59 users
◎IMDb链接 https://www.imdb.com/title/tt11563256/
◎豆瓣评分 /10 from 0 users
◎豆瓣链接 https://douban.com/subject/35324581/
◎集  数 7
◎导  演 罗德里戈·加西亚 Rodrigo García / Alejandro Maci Alejandro Maci
◎编  剧 Pamela Rementería Pamela Rementería / Marcela Guerty Marcela Guerty / Tomás Eloy Martínez Tomás Eloy Martínez
◎主  演 娜塔莉亚·欧瑞洛 Natalia Oreiro
       迭戈·维拉斯奎兹 Diego Velázquez
       弗兰塞斯克·奥雷利亚 Francesc Orella
       迭戈·克雷莫内西 Diego Cremonesi
       欧内斯特·艾戴里欧 Ernesto Alterio
       达里奥·格兰迪内蒂 Darío Grandinetti
       Damián Canduci Damián Canduci
       吉列尔莫·阿伦戈 Guillermo Arengo
       弗兰克·格里什 Frank Gerrish
       朱丽叶·瓦利娜 Julieta Vallina

◎简  介

  这是伊娃·佩隆死后的故事。经过防腐处理的“埃维塔”尸体经历了长达22年的多事之旅,每一点都和她33年的生命一样多事。埃维塔于1952年去世,但她的尸体在地面上等待了三年,等待着建造一座最终从未建造过的纪念碑。1955年,佩隆总统的政府被军事政变推翻,他将尸体隐藏了19年,以防止它成为反对该政权的象征。虽然佩隆将军的妻子只是一个六年的政治人物,但她的尸体影响了阿根廷政治二十多年——编织了一个病态的奇怪故事,进入了神话领域。对于接任的军官来说,埃维塔甚至比她活着的时候更危险,因为所有人都担心那具没有安息之地的迷途尸体。

Video
ID : 1
Format : HEVC
Format/Info : High Efficiency Video Coding
Format profile : Main 10@L5.1@Main
Codec ID : V_MPEGH/ISO/HEVC
Duration : 47 min 27 s
Bit rate : 15.1 Mb/s
Width : 3 840 pixels
Height : 2 160 pixels
Display aspect ratio : 16:9
Frame rate mode : Constant
Frame rate : 23.976 (24000/1001) FPS
Color space : YUV
Chroma subsampling : 4:2:0
Bit depth : 10 bits
Bits/(Pixel*Frame) : 0.076
Stream size : 5.02 GiB (97%)
Language : Spanish
Default : Yes
Forced : No

Audio #1
ID : 2
Format : E-AC-3
Format/Info : Enhanced AC-3
Commercial name : Dolby Digital Plus
Codec ID : A_EAC3
Duration : 47 min 27 s
Bit rate mode : Constant
Bit rate : 256 kb/s
Channel(s) : 6 channels
Channel layout : L R C LFE Ls Rs
Sampling rate : 48.0 kHz
Frame rate : 31.250 FPS (1536 SPF)
Compression mode : Lossy
Stream size : 86.9 MiB (2%)
Language : Spanish
Service kind : Complete Main
Default : Yes
Forced : No

Audio #2
ID : 3
Format : E-AC-3
Format/Info : Enhanced AC-3
Commercial name : Dolby Digital Plus
Codec ID : A_EAC3
Duration : 47 min 27 s
Bit rate mode : Constant
Bit rate : 256 kb/s
Channel(s) : 6 channels
Channel layout : L R C LFE Ls Rs
Sampling rate : 48.0 kHz
Frame rate : 31.250 FPS (1536 SPF)
Compression mode : Lossy
Stream size : 86.9 MiB (2%)
Language : English
Service kind : Complete Main
Default : No
Forced : No

Text #1
ID : 4
Format : UTF-8
Codec ID : S_TEXT/UTF8
Codec ID/Info : UTF-8 Plain Text
Duration : 45 min 26 s
Bit rate : 64 b/s
Frame rate : 0.220 FPS
Count of elements : 601
Stream size : 21.4 KiB (0%)
Title : English (forced)
Language : English
Default : Yes
Forced : Yes

Text #2
ID : 5
Format : UTF-8
Codec ID : S_TEXT/UTF8
Codec ID/Info : UTF-8 Plain Text
Duration : 45 min 6 s
Bit rate : 52 b/s
Frame rate : 0.177 FPS
Count of elements : 478
Stream size : 17.5 KiB (0%)
Language : English
Default : No
Forced : No

Text #3
ID : 6
Format : UTF-8
Codec ID : S_TEXT/UTF8
Codec ID/Info : UTF-8 Plain Text
Duration : 45 min 14 s
Bit rate : 65 b/s
Frame rate : 0.220 FPS
Count of elements : 597
Stream size : 21.6 KiB (0%)
Title : SDH
Language : English
Default : No
Forced : No

Text #4
ID : 7
Format : UTF-8
Codec ID : S_TEXT/UTF8
Codec ID/Info : UTF-8 Plain Text
Duration : 45 min 27 s
Bit rate : 56 b/s
Frame rate : 0.218 FPS
Count of elements : 595
Stream size : 18.8 KiB (0%)
Title : Spanish
Language : Spanish
Default : No
Forced : No

下载地址:

游客,如果您要查看本帖隐藏内容请回复





上一篇:老头子 / The Old Man (2022) 第一季全/4K高清版本下载
下一篇:老头子 / The Old Man] (2022) 第一季全/4K高清版本下载
回复

使用道具 举报

1

主题

1693

帖子

4701

积分

4K家园VIP

Rank: 9Rank: 9Rank: 9

积分
4701
发表于 2022-7-27 13:45:10 | 显示全部楼层
发发呆,回回帖,工作结束~
回复 支持 反对

使用道具 举报

5

主题

1418

帖子

4096

积分

4K家园VIP

Rank: 9Rank: 9Rank: 9

积分
4096
发表于 2022-7-27 13:45:10 | 显示全部楼层
是爷们的娘们的都帮顶!大力支持
回复 支持 反对

使用道具 举报

34

主题

1588

帖子

4474

积分

4K家园VIP

Rank: 9Rank: 9Rank: 9

积分
4474
发表于 2022-7-27 13:45:10 来自手机 | 显示全部楼层
看着好像不错
回复 支持 反对

使用道具 举报

41

主题

1534

帖子

4399

积分

4K家园VIP

Rank: 9Rank: 9Rank: 9

积分
4399
发表于 2022-7-27 13:45:11 | 显示全部楼层
感谢楼主的分享,还是阔以滴
回复 支持 反对

使用道具 举报

主题

帖子

0

积分

4K家园VIP

Rank: 9Rank: 9Rank: 9

积分
0
发表于 2022-7-27 15:21:39 | 显示全部楼层
太好啦&萬分感謝版主的無私發佈分享%
回复 支持 反对

使用道具 举报

主题

帖子

106

积分

新手上路

Rank: 1

积分
106
发表于 2022-7-28 16:14:14 | 显示全部楼层
111111111111111111111111111111111111111111
回复 支持 反对

使用道具 举报

主题

帖子

15

积分

新手上路

Rank: 1

积分
15
发表于 2022-7-28 21:34:34 | 显示全部楼层
看起来是我喜欢的味道
回复 支持 反对

使用道具 举报

2

主题

1443

帖子

4353

积分

4K家园VIP

Rank: 9Rank: 9Rank: 9

积分
4353
发表于 2022-8-5 19:46:26 | 显示全部楼层
专业抢沙发的!哈哈
回复 支持 反对

使用道具 举报

主题

帖子

6

积分

4K家园VIP

Rank: 9Rank: 9Rank: 9

积分
6
发表于 2022-8-9 13:46:45 来自手机 | 显示全部楼层
感谢楼主的分享
回复 支持 反对

使用道具 举报

您需要登录后才可以回帖 登录 | 立即注册

本版积分规则

精彩图文
Archiver|手机版|TAG|Sitemap|新帖|专题|联系我们:邮箱: 4kjia.com@gmail.com   

4k家园   ©2019