[4K电影] 灰影人 [简体中字] / The Gray Man (2022) 4K高清版本下载

[复制链接]

2163

主题

2306

帖子

1万

积分

超级版主

Rank: 8Rank: 8

积分
16861
 楼主| 发表于 2022-7-28 21:23:47 | 显示全部楼层 |阅读模式
QQ图片20220728210502_副本.png

◎译  名 灰影人/灰色人/灰人
◎片  名 The Gray Man
◎年  代 2022
◎产  地 美国
◎类  别 动作/惊悚
◎语  言 英语
◎上映日期 2022-07-15(美国)/2022-07-22(美国网络)
◎IMDb评分 6.6/10 from 67959 users
◎IMDb链接 https://www.imdb.com/title/tt1649418/
◎豆瓣评分 6.6/10 from 14307 users
◎豆瓣链接 https://movie.douban.com/subject/7051806/
◎导  演 安东尼·罗素 Anthony Russo / 乔·罗素 Joe Russo
◎编  剧 乔·罗素 Joe Russo / 克里斯托弗·马库斯 Christopher Markus / 斯蒂芬·麦克菲利 Stephen McFeely / 马克·格里尼 Mark Greaney
◎主  演 瑞恩·高斯林 Ryan Gosling
       克里斯·埃文斯 Chris Evans
       安娜·德·阿玛斯 Ana de Armas
       杰西卡·亨维克 Jessica Henwick
       茱莉亚·巴特斯 Julia Butters
       雷吉-让·佩吉 Regé-Jean Page
       比利·鲍伯·松顿 Billy Bob Thornton
       瓦格纳·马拉 Wagner Moura
       丹努什 Dhanush
       阿尔法·伍达德 Alfre Woodard
       谢伊·惠格姆 Shea Whigham
       道比·欧帕瑞 Deobia Oparei
       罗伯特·卡辛斯基 Robert Kazinsky
       Daz Crawford Daz Crawford
       卡兰·马尔韦 Callan Mulvey
       卡梅伦·克罗维蒂 Cameron Crovetti
       纳迪夫·莫尔乔 Nadiv Molcho
       吉米·让-刘易斯 Jimmy Jean-Louis
       艾米·伊库瓦克 Eme Ikwuakor
       凯伦金贝克 Karen Jin Beck
       凯特·布朗伯格 Kate Blumberg
       贝基·吴 Becky Wu
       玛丽亚·达金娜 Maria Darkina
       Kaipo Schwab Kaipo Schwab
       肯德尔·威尔斯 Kendall Wells
       Michael Anthony Rogers Michael Anthony Rogers
       马丁·威廉·哈里斯 Martin William Harris
       卡雷尔·黑勒曼克 Karel Hermánek
       Michel Carliez Michel Carliez
       布伦特·麦吉 Brent McGee
       法乌齐·卜拉希米 Faouzi Brahimi
       斯特芬·杰科 Steffen Dziczek
       斯温·吉尔伯格 Swen Gillberg
       马修·弗林·贝罗斯 Matthew Flynn Bellows
       吉·亚历山大 Gee Alexander
       乔·罗素 Joe Russo
       斯科特·黑兹 Scott Haze


◎简  介


  《灰影人》由Netflix和AGBO合制,剧情讲述人称“灰影人”的寇特·詹特利(瑞恩·高斯林 饰)为中情局效命,特务代号“山岭六号”。上线唐纳德·菲茨罗伊(比利·鲍伯·松顿 饰)当初将他弄出联邦监狱,让他成为局里钦点的精锐死亡佣兵。如今风水轮流转,六号反倒沦为头号目标,中情局前同事洛伊德·汉森(克里斯·埃文斯 饰)为了铲除他,无所不用其极地发动全球围攻,特工达妮·米兰达(安娜·德·阿玛斯 饰)却总能在他千钧一发之际伸出援手。

Video
ID : 1
Format : HEVC
Format/Info : High Efficiency Video Coding
Format profile : Main 10@L5.1@High
Codec ID : V_MPEGH/ISO/HEVC
Duration : 2 h 9 min
Bit rate : 21.3 Mb/s
Width : 3 840 pixels
Height : 1 608 pixels
Display aspect ratio : 2.40:1
Frame rate mode : Constant
Frame rate : 24.000 FPS
Color space : YUV
Chroma subsampling : 4:2:0
Bit depth : 10 bits
Bits/(Pixel*Frame) : 0.144
Stream size : 19.2 GiB (96%)
Writing library : x265 3.4+6-g73f96ff39:[Windows][GCC 11.0.0][64 bit] 10bit
Encoding settings : cpuid=1111039 / frame-threads=3 / numa-pools=12 / wpp / no-pmode / no-pme / no-psnr / no-ssim / log-level=2 / input-csp=1 / input-res=3840x1608 / interlace=0 / total-frames=185810 / level-idc=51 / high-tier=1 / uhd-bd=0 / ref=5 / no-allow-non-conformance / repeat-headers / annexb / aud / hrd / info / hash=0 / no-temporal-layers / open-gop / min-keyint=23 / keyint=250 / gop-lookahead=0 / bframes=8 / b-adapt=2 / b-pyramid / bframe-bias=0 / rc-lookahead=40 / lookahead-slices=0 / scenecut=40 / hist-scenecut=0 / radl=0 / no-splice / no-intra-refresh / ctu=64 / min-cu-size=8 / no-rect / no-amp / max-tu-size=32 / tu-inter-depth=4 / tu-intra-depth=4 / limit-tu=4 / rdoq-level=2 / dynamic-rd=0.00 / no-ssim-rd / signhide / no-tskip / nr-intra=0 / nr-inter=0 / no-constrained-intra / strong-intra-smoothing / max-merge=4 / limit-refs=1 / limit-modes / me=3 / subme=4 / merange=48 / temporal-mvp / no-frame-dup / no-hme / weightp / weightb / no-analyze-src-pics / deblock=-3:-3 / no-sao / no-sao-non-deblock / rd=6 / selective-sao=0 / no-early-skip / rskip / no-fast-intra / no-tskip-fast / no-cu-lossless / b-intra / no-splitrd-skip / rdpenalty=0 / psy-rd=2.00 / psy-rdoq=1.00 / no-rd-refine / no-lossless / cbqpoffs=0 / crqpoffs=0 / rc=crf / crf=21.0 / qcomp=0.60 / qpstep=4 / stats-write=0 / stats-read=0 / vbv-maxrate=160000 / vbv-bufsize=160000 / vbv-init=0.9 / crf-max=0.0 / crf-min=0.0 / ipratio=1.30 / pbratio=1.20 / aq-mode=3 / aq-strength=1.00 / no-cutree / zone-count=0 / no-strict-cbr / qg-size=32 / no-rc-grain / qpmax=69 / qpmin=0 / no-const-vbv / sar=0 / overscan=0 / videoformat=5 / range=0 / colorprim=1 / transfer=1 / colormatrix=1 / chromaloc=0 / display-window=0 / cll=0,0 / min-luma=0 / max-luma=1023 / log2-max-poc-lsb=8 / vui-timing-info / vui-hrd-info / slices=1 / no-opt-qp-pps / no-opt-ref-list-length-pps / no-multi-pass-opt-rps / scenecut-bias=0.05 / hist-threshold=0.01 / no-opt-cu-delta-qp / no-aq-motion / no-hdr10 / no-hdr10-opt / no-dhdr10-opt / no-idr-recovery-sei / analysis-reuse-level=0 / analysis-save-reuse-level=0 / analysis-load-reuse-level=0 / scale-factor=0 / refine-intra=0 / refine-inter=0 / refine-mv=1 / refine-ctu-distortion=0 / no-limit-sao / ctu-info=0 / no-lowpass-dct / refine-analysis-type=0 / copy-pic=1 / max-ausize-factor=1.0 / no-dynamic-refine / no-single-sei / no-hevc-aq / no-svt / no-field / qp-adaptation-range=1.00 / no-scenecut-aware-qpconformance-window-offsets / right=0 / bottom=0 / decoder-max-rate=0
Default : Yes
Forced : No
Color range : Limited
Color primaries : BT.709
Transfer characteristics : BT.709
Matrix coefficients : BT.709

Audio
ID : 2
Format : E-AC-3 JOC
Format/Info : Enhanced AC-3 with Joint Object Coding
Commercial name : Dolby Digital Plus with Dolby Atmos
Codec ID : A_EAC3
Duration : 2 h 9 min
Bit rate mode : Constant
Bit rate : 768 kb/s
Channel(s) : 6 channels
Channel layout : L R C LFE Ls Rs
Sampling rate : 48.0 kHz
Frame rate : 31.250 FPS (1536 SPF)
Compression mode : Lossy
Stream size : 709 MiB (3%)
Language : English
Service kind : Complete Main
Default : Yes
Forced : No
Complexity index : 16
Number of dynamic objects : 15
Bed channel count : 1 channel
Bed channel configuration : LFE

Text #1
ID : 3
Format : UTF-8
Codec ID : S_TEXT/UTF8
Codec ID/Info : UTF-8 Plain Text
Duration : 2 h 6 min
Bit rate : 58 b/s
Frame rate : 0.239 FPS
Count of elements : 1813
Stream size : 54.5 KiB (0%)
Title : SDH
Language : English
Default : No
Forced : No

Text #2
ID : 4
Format : UTF-8
Codec ID : S_TEXT/UTF8
Codec ID/Info : UTF-8 Plain Text
Duration : 1 h 56 min
Bit rate : 50 b/s
Frame rate : 0.196 FPS
Count of elements : 1365
Stream size : 42.6 KiB (0%)
Language : English
Default : No
Forced : No

Text #3
ID : 5
Format : UTF-8
Codec ID : S_TEXT/UTF8
Codec ID/Info : UTF-8 Plain Text
Duration : 2 h 6 min
Bit rate : 74 b/s
Frame rate : 0.174 FPS
Count of elements : 1313
Stream size : 69.2 KiB (0%)
Language : Arabic
Default : No
Forced : No

Text #4
ID : 6
Format : UTF-8
Codec ID : S_TEXT/UTF8
Codec ID/Info : UTF-8 Plain Text
Duration : 2 h 6 min
Bit rate : 37 b/s
Frame rate : 0.164 FPS
Count of elements : 1242
Stream size : 34.6 KiB (0%)
Language : Catalan
Default : No
Forced : No

Text #5
ID : 7
Format : UTF-8
Codec ID : S_TEXT/UTF8
Codec ID/Info : UTF-8 Plain Text
Duration : 2 h 6 min
Bit rate : 42 b/s
Frame rate : 0.139 FPS
Count of elements : 1051
Stream size : 39.1 KiB (0%)
Language : Czech
Default : No
Forced : No

Text #6
ID : 8
Format : UTF-8
Codec ID : S_TEXT/UTF8
Codec ID/Info : UTF-8 Plain Text
Duration : 2 h 6 min
Bit rate : 38 b/s
Frame rate : 0.166 FPS
Count of elements : 1256
Stream size : 35.6 KiB (0%)
Language : Danish
Default : No
Forced : No

Text #7
ID : 9
Format : UTF-8
Codec ID : S_TEXT/UTF8
Codec ID/Info : UTF-8 Plain Text
Duration : 2 h 6 min
Bit rate : 39 b/s
Frame rate : 0.165 FPS
Count of elements : 1251
Stream size : 36.5 KiB (0%)
Language : German
Default : No
Forced : No

Text #8
ID : 10
Format : UTF-8
Codec ID : S_TEXT/UTF8
Codec ID/Info : UTF-8 Plain Text
Duration : 2 h 6 min
Bit rate : 68 b/s
Frame rate : 0.157 FPS
Count of elements : 1187
Stream size : 63.0 KiB (0%)
Language : Greek
Default : No
Forced : No

Text #9
ID : 11
Format : UTF-8
Codec ID : S_TEXT/UTF8
Codec ID/Info : UTF-8 Plain Text
Duration : 2 h 0 min
Bit rate : 57 b/s
Frame rate : 0.232 FPS
Count of elements : 1679
Stream size : 50.5 KiB (0%)
Title : SDH
Language : Spanish
Default : No
Forced : No

Text #10
ID : 12
Format : UTF-8
Codec ID : S_TEXT/UTF8
Codec ID/Info : UTF-8 Plain Text
Duration : 1 h 56 min
Bit rate : 48 b/s
Frame rate : 0.181 FPS
Count of elements : 1263
Stream size : 41.0 KiB (0%)
Language : Spanish
Default : No
Forced : No

Text #11
ID : 13
Format : UTF-8
Codec ID : S_TEXT/UTF8
Codec ID/Info : UTF-8 Plain Text
Duration : 2 h 6 min
Bit rate : 36 b/s
Frame rate : 0.171 FPS
Count of elements : 1292
Stream size : 33.5 KiB (0%)
Language : Basque
Default : No
Forced : No

Text #12
ID : 14
Format : UTF-8
Codec ID : S_TEXT/UTF8
Codec ID/Info : UTF-8 Plain Text
Duration : 2 h 6 min
Bit rate : 33 b/s
Frame rate : 0.170 FPS
Count of elements : 1288
Stream size : 30.7 KiB (0%)
Language : Finnish
Default : No
Forced : No

Text #13
ID : 15
Format : UTF-8
Codec ID : S_TEXT/UTF8
Codec ID/Info : UTF-8 Plain Text
Duration : 2 h 6 min
Bit rate : 41 b/s
Frame rate : 0.167 FPS
Count of elements : 1267
Stream size : 37.9 KiB (0%)
Language : fil
Default : No
Forced : No

Text #14
ID : 16
Format : UTF-8
Codec ID : S_TEXT/UTF8
Codec ID/Info : UTF-8 Plain Text
Duration : 2 h 6 min
Bit rate : 40 b/s
Frame rate : 0.169 FPS
Count of elements : 1275
Stream size : 37.0 KiB (0%)
Language : French
Default : No
Forced : No

Text #15
ID : 17
Format : UTF-8
Codec ID : S_TEXT/UTF8
Codec ID/Info : UTF-8 Plain Text
Duration : 2 h 6 min
Bit rate : 37 b/s
Frame rate : 0.172 FPS
Count of elements : 1300
Stream size : 34.2 KiB (0%)
Language : Galician
Default : No
Forced : No

Text #16
ID : 18
Format : UTF-8
Codec ID : S_TEXT/UTF8
Codec ID/Info : UTF-8 Plain Text
Duration : 2 h 6 min
Bit rate : 66 b/s
Frame rate : 0.168 FPS
Count of elements : 1272
Stream size : 61.1 KiB (0%)
Language : Hebrew
Default : No
Forced : No

Text #17
ID : 19
Format : UTF-8
Codec ID : S_TEXT/UTF8
Codec ID/Info : UTF-8 Plain Text
Duration : 2 h 6 min
Bit rate : 37 b/s
Frame rate : 0.169 FPS
Count of elements : 1277
Stream size : 34.2 KiB (0%)
Language : Croatian
Default : No
Forced : No

Text #18
ID : 20
Format : UTF-8
Codec ID : S_TEXT/UTF8
Codec ID/Info : UTF-8 Plain Text
Duration : 2 h 6 min
Bit rate : 36 b/s
Frame rate : 0.168 FPS
Count of elements : 1271
Stream size : 33.7 KiB (0%)
Language : Hungarian
Default : No
Forced : No

Text #19
ID : 21
Format : UTF-8
Codec ID : S_TEXT/UTF8
Codec ID/Info : UTF-8 Plain Text
Duration : 2 h 6 min
Bit rate : 36 b/s
Frame rate : 0.172 FPS
Count of elements : 1303
Stream size : 33.4 KiB (0%)
Language : Indonesian
Default : No
Forced : No

Text #20
ID : 22
Format : UTF-8
Codec ID : S_TEXT/UTF8
Codec ID/Info : UTF-8 Plain Text
Duration : 1 h 56 min
Bit rate : 40 b/s
Frame rate : 0.183 FPS
Count of elements : 1275
Stream size : 34.2 KiB (0%)
Language : Italian
Default : No
Forced : No

Text #21
ID : 23
Format : UTF-8
Codec ID : S_TEXT/UTF8
Codec ID/Info : UTF-8 Plain Text
Duration : 2 h 6 min
Bit rate : 38 b/s
Frame rate : 0.181 FPS
Count of elements : 1370
Stream size : 36.0 KiB (0%)
Language : Japanese
Default : No
Forced : No

Text #22
ID : 24
Format : UTF-8
Codec ID : S_TEXT/UTF8
Codec ID/Info : UTF-8 Plain Text
Duration : 2 h 6 min
Bit rate : 47 b/s
Frame rate : 0.172 FPS
Count of elements : 1305
Stream size : 43.8 KiB (0%)
Language : Korean
Default : No
Forced : No

Text #23
ID : 25
Format : UTF-8
Codec ID : S_TEXT/UTF8
Codec ID/Info : UTF-8 Plain Text
Duration : 2 h 6 min
Bit rate : 38 b/s
Frame rate : 0.166 FPS
Count of elements : 1255
Stream size : 35.4 KiB (0%)
Language : Malay
Default : No
Forced : No

Text #24
ID : 26
Format : UTF-8
Codec ID : S_TEXT/UTF8
Codec ID/Info : UTF-8 Plain Text
Duration : 2 h 6 min
Bit rate : 34 b/s
Frame rate : 0.143 FPS
Count of elements : 1083
Stream size : 31.6 KiB (0%)
Language : Norwegian Bokmal
Default : No
Forced : No

Text #25
ID : 27
Format : UTF-8
Codec ID : S_TEXT/UTF8
Codec ID/Info : UTF-8 Plain Text
Duration : 2 h 6 min
Bit rate : 37 b/s
Frame rate : 0.137 FPS
Count of elements : 1033
Stream size : 34.8 KiB (0%)
Language : Dutch
Default : No
Forced : No

Text #26
ID : 28
Format : UTF-8
Codec ID : S_TEXT/UTF8
Codec ID/Info : UTF-8 Plain Text
Duration : 2 h 6 min
Bit rate : 37 b/s
Frame rate : 0.168 FPS
Count of elements : 1269
Stream size : 35.0 KiB (0%)
Language : Polish
Default : No
Forced : No

Text #27
ID : 29
Format : UTF-8
Codec ID : S_TEXT/UTF8
Codec ID/Info : UTF-8 Plain Text
Duration : 1 h 56 min
Bit rate : 44 b/s
Frame rate : 0.181 FPS
Count of elements : 1261
Stream size : 38.0 KiB (0%)
Language : Portuguese
Default : No
Forced : No

Text #28
ID : 30
Format : UTF-8
Codec ID : S_TEXT/UTF8
Codec ID/Info : UTF-8 Plain Text
Duration : 2 h 0 min
Bit rate : 58 b/s
Frame rate : 0.239 FPS
Count of elements : 1733
Stream size : 52.1 KiB (0%)
Title : Brazilian SDH
Language : Portuguese
Default : No
Forced : No

Text #29
ID : 31
Format : UTF-8
Codec ID : S_TEXT/UTF8
Codec ID/Info : UTF-8 Plain Text
Duration : 1 h 56 min
Bit rate : 47 b/s
Frame rate : 0.184 FPS
Count of elements : 1286
Stream size : 40.1 KiB (0%)
Title : Brazilian
Language : Portuguese
Default : No
Forced : No

Text #30
ID : 32
Format : UTF-8
Codec ID : S_TEXT/UTF8
Codec ID/Info : UTF-8 Plain Text
Duration : 2 h 6 min
Bit rate : 45 b/s
Frame rate : 0.160 FPS
Count of elements : 1210
Stream size : 41.8 KiB (0%)
Language : Romanian
Default : No
Forced : No

Text #31
ID : 33
Format : UTF-8
Codec ID : S_TEXT/UTF8
Codec ID/Info : UTF-8 Plain Text
Duration : 2 h 6 min
Bit rate : 61 b/s
Frame rate : 0.172 FPS
Count of elements : 1301
Stream size : 57.3 KiB (0%)
Language : Russian
Default : No
Forced : No

Text #32
ID : 34
Format : UTF-8
Codec ID : S_TEXT/UTF8
Codec ID/Info : UTF-8 Plain Text
Duration : 2 h 6 min
Bit rate : 37 b/s
Frame rate : 0.124 FPS
Count of elements : 940
Stream size : 34.2 KiB (0%)
Language : Swedish
Default : No
Forced : No

Text #33
ID : 35
Format : UTF-8
Codec ID : S_TEXT/UTF8
Codec ID/Info : UTF-8 Plain Text
Duration : 2 h 6 min
Bit rate : 94 b/s
Frame rate : 0.173 FPS
Count of elements : 1311
Stream size : 87.6 KiB (0%)
Language : Thai
Default : No
Forced : No

Text #34
ID : 36
Format : UTF-8
Codec ID : S_TEXT/UTF8
Codec ID/Info : UTF-8 Plain Text
Duration : 2 h 6 min
Bit rate : 40 b/s
Frame rate : 0.140 FPS
Count of elements : 1060
Stream size : 37.0 KiB (0%)
Language : Turkish
Default : No
Forced : No

Text #35
ID : 37
Format : UTF-8
Codec ID : S_TEXT/UTF8
Codec ID/Info : UTF-8 Plain Text
Duration : 2 h 6 min
Bit rate : 63 b/s
Frame rate : 0.169 FPS
Count of elements : 1278
Stream size : 59.0 KiB (0%)
Language : Ukrainian
Default : No
Forced : No

Text #36
ID : 38
Format : UTF-8
Codec ID : S_TEXT/UTF8
Codec ID/Info : UTF-8 Plain Text
Duration : 2 h 6 min
Bit rate : 55 b/s
Frame rate : 0.168 FPS
Count of elements : 1272
Stream size : 51.1 KiB (0%)
Language : Vietnamese
Default : No
Forced : No

Text #37
ID : 39
Format : UTF-8
Codec ID : S_TEXT/UTF8
Codec ID/Info : UTF-8 Plain Text
Duration : 2 h 6 min
Bit rate : 44 b/s
Frame rate : 0.172 FPS
Count of elements : 1303
Stream size : 41.4 KiB (0%)
Title : 中文(简体)
Language : 中文
Default : No
Forced : No

Text #38
ID : 40
Format : UTF-8
Codec ID : S_TEXT/UTF8
Codec ID/Info : UTF-8 Plain Text
Duration : 2 h 6 min
Bit rate : 39 b/s
Frame rate : 0.178 FPS
Count of elements : 1348
Stream size : 36.4 KiB (0%)
Title : 中文(繁体)
Language : 中文
Default : No
Forced : No


资源速度为零或资源敏感被和谐时,推荐使用qBittorrent等下载软件,有条件的推荐115更好的下载软件!

下载地址:


游客,如果您要查看本帖隐藏内容请回复









上一篇:附属美丽[简繁粤中字]/Collateral Beauty(2016)4K高清版本下载
下一篇:不好 [简繁粤中字] / Not Okay (2022) 4K高清版本下载
回复

使用道具 举报

4

主题

1432

帖子

4132

积分

中级会员

Rank: 4

积分
4132
发表于 2022-7-28 21:23:51 来自手机 | 显示全部楼层
呵呵。。。
回复 支持 反对

使用道具 举报

48

主题

1547

帖子

4451

积分

4K家园VIP

Rank: 9Rank: 9Rank: 9

积分
4451
发表于 2022-7-28 22:02:27 | 显示全部楼层
支持,赞一个
回复 支持 反对

使用道具 举报

37

主题

1418

帖子

4070

积分

4K家园VIP

Rank: 9Rank: 9Rank: 9

积分
4070
发表于 2022-7-28 22:44:37 | 显示全部楼层
好帖必须得顶起
回复 支持 反对

使用道具 举报

41

主题

1537

帖子

4443

积分

4K家园VIP

Rank: 9Rank: 9Rank: 9

积分
4443
发表于 2022-7-28 22:55:00 | 显示全部楼层
不错 支持一个了
回复 支持 反对

使用道具 举报

3

主题

1211

帖子

3647

积分

4K家园VIP

Rank: 9Rank: 9Rank: 9

积分
3647
发表于 2022-7-28 23:14:07 | 显示全部楼层
差评
回复 支持 反对

使用道具 举报

0

主题

8337

帖子

1万

积分

4K家园VIP

Rank: 9Rank: 9Rank: 9

积分
19388
发表于 2022-7-29 08:58:04 | 显示全部楼层
太好啦&萬分感謝版主的無私發佈分享%
回复 支持 反对

使用道具 举报

0

主题

1

帖子

6

积分

新手上路

Rank: 1

积分
6
发表于 2022-7-29 10:07:13 | 显示全部楼层
刚刚回顾韩国胡歌胡歌胡歌
回复 支持 反对

使用道具 举报

0

主题

58

帖子

1082

积分

注册会员

Rank: 2

积分
1082
发表于 2022-7-29 10:53:04 | 显示全部楼层
谢谢谢谢谢谢谢
回复 支持 反对

使用道具 举报

1

主题

226

帖子

5634

积分

高级会员

Rank: 3Rank: 3

积分
5634
发表于 2022-7-29 10:56:16 | 显示全部楼层
支持,赞一个
回复 支持 反对

使用道具 举报

您需要登录后才可以回帖 登录 | 立即注册

本版积分规则

精彩图文
Archiver|手机版|TAG|Sitemap|新帖|专题|联系我们:邮箱: 4kjia.com@gmail.com   

4k家园   ©2019