[4K电影] 荣誉团队 / Honor Society (2022) 4K高清版本下载

[复制链接]

主题

帖子

0

积分

超级版主

Rank: 8Rank: 8

积分
0
 楼主| 发表于 2022-7-29 22:02:26 | 显示全部楼层 |阅读模式

QQ图片20220729213434_副本.png

◎标  题 荣誉团队
◎译  名 荣誉学堂 / 荣誉学会
◎片  名 Honor Society
◎年  代 2022
◎产  地 美国
◎类  别 剧情 / 喜剧
◎语  言 英语
◎上映日期 2022-07-29(美国)
◎IMDb评分 5.7/10 from 47 users
◎IMDb链接 https://www.imdb.com/title/tt16491324/
◎豆瓣评分 0/10 from 0 users
◎豆瓣链接 https://movie.douban.com/subject/35800480/
◎导  演 奥兰·泽格曼 Oliver Stone
◎编  剧 大卫·A·古德曼 David A. Goodman
◎演  员 加滕·马塔拉佐 Gaten Matarazzo
                    Angourie Rice Angourie Rice
                   克里斯托弗·明茨·普拉斯 Christopher Mintz-Plasse
                   艾弗里·康拉德 Avery Konrad
                   阿玛尼·杰克逊 Armani Jackson
                   克里·巴特勒 Kerry Butler
                   迈克·帕特里夏·马蒂诺 Miku Patricia Martineau
                   Valin Shinyei Valin Shinyei
                   Kelcey Mawema Kelcey Mawema
                   坎迪斯·亨特 Candice Hunter
                   June B. Wilde June B. Wilde
                   Connor Wong Connor Wong
                   布伦丹·麦克雷 Brendan McRae
                   佐伊·克里斯蒂 Zoë Christie
                   迈克尔·P·诺西 Michael P. Northey
                   艾米·基姆 Amy Keum
                   克里斯蒂安·拉加斯 Christian Lagasse
                   Jason Sakaki Jason Sakaki



◎简  介

         霍诺是一名雄心勃勃的高中生,她唯一的重点是进入哈佛,假设她能首先获得她的指导顾问卡尔文先生梦寐以求的推荐信。愿意做任何事情的霍诺制定了一个马基雅维利式的计划来击败她的前三名学生竞争对手,直到事情发生转机,她意外地爱上了她最大的竞争对手迈克尔。
Video
ID : 1
Format : HEVC
Format/Info : High Efficiency Video Coding
Format profile : Main@L5@Main
Codec ID : V_MPEGH/ISO/HEVC
Duration : 1 h 37 min
Bit rate : 9 370 kb/s
Width : 3 840 pixels
Height : 2 160 pixels
Display aspect ratio : 16:9
Frame rate mode : Constant
Frame rate : 23.976 (24000/1001) FPS
Color space : YUV
Chroma subsampling : 4:2:0
Bit depth : 8 bits
Bits/(Pixel*Frame) : 0.047
Stream size : 6.40 GiB (94%)
Writing library : x265 3.5+1-f0c1022b6:[Linux][GCC 9.3.0][64 bit] 8bit+10bit+12bit
Encoding settings : cpuid=1111039 / frame-threads=3 / wpp / no-pmode / no-pme / no-psnr / no-ssim / log-level=2 / input-csp=1 / input-res=3840x2160 / interlace=0 / total-frames=0 / level-idc=0 / high-tier=1 / uhd-bd=0 / ref=4 / no-allow-non-conformance / repeat-headers / annexb / no-aud / no-eob / no-eos / no-hrd / info / hash=0 / no-temporal-layers / open-gop / min-keyint=48 / keyint=48 / gop-lookahead=0 / bframes=4 / b-adapt=2 / b-pyramid / bframe-bias=0 / rc-lookahead=25 / lookahead-slices=4 / scenecut=0 / no-hist-scenecut / radl=0 / no-splice / no-intra-refresh / ctu=64 / min-cu-size=8 / rect / no-amp / max-tu-size=32 / tu-inter-depth=1 / tu-intra-depth=1 / limit-tu=0 / rdoq-level=2 / dynamic-rd=0.00 / no-ssim-rd / signhide / no-tskip / nr-intra=0 / nr-inter=0 / no-constrained-intra / strong-intra-smoothing / max-merge=3 / limit-refs=3 / limit-modes / me=3 / subme=3 / merange=57 / temporal-mvp / no-frame-dup / no-hme / weightp / no-weightb / no-analyze-src-pics / deblock=0:0 / sao / no-sao-non-deblock / rd=4 / selective-sao=4 / no-early-skip / rskip / no-fast-intra / no-tskip-fast / no-cu-lossless / no-b-intra / no-splitrd-skip / rdpenalty=0 / psy-rd=2.00 / psy-rdoq=1.00 / no-rd-refine / no-lossless / cbqpoffs=0 / crqpoffs=0 / rc=abr / bitrate=9505 / qcomp=0.60 / qpstep=4 / stats-write=0 / stats-read=2 / cplxblur=20.0 / qblur=0.5 / vbv-maxrate=11406 / vbv-bufsize=9505 / vbv-init=0.8 / min-vbv-fullness=50.0 / max-vbv-fullness=80.0 / ipratio=1.40 / pbratio=1.30 / aq-mode=2 / aq-strength=1.00 / cutree / zone-count=0 / no-strict-cbr / qg-size=32 / no-rc-grain / qpmax=69 / qpmin=0 / no-const-vbv / sar=1 / overscan=0 / videoformat=5 / range=0 / colorprim=1 / transfer=1 / colormatrix=1 / chromaloc=0 / display-window=0 / cll=0,0 / min-luma=0 / max-luma=255 / log2-max-poc-lsb=8 / vui-timing-info / vui-hrd-info / slices=1 / no-opt-qp-pps / no-opt-ref-list-length-pps / no-multi-pass-opt-rps / scenecut-bias=0.05 / hist-threshold=0.03 / no-opt-cu-delta-qp / no-aq-motion / no-hdr10 / no-hdr10-opt / no-dhdr10-opt / no-idr-recovery-sei / analysis-reuse-level=0 / analysis-save-reuse-level=0 / analysis-load-reuse-level=0 / scale-factor=0 / refine-intra=0 / refine-inter=0 / refine-mv=1 / refine-ctu-distortion=0 / no-limit-sao / ctu-info=0 / no-lowpass-dct / refine-analysis-type=0 / copy-pic=1 / max-ausize-factor=1.0 / no-dynamic-refine / no-single-sei / no-hevc-aq / no-svt / no-field / qp-adaptation-range=1.00 / scenecut-aware-qp=0conformance-window-offsets / right=0 / bottom=0 / decoder-max-rate=0 / no-vbv-live-multi-pass
Language : English
Default : Yes
Forced : No
Color range : Limited
Color primaries : BT.709
Transfer characteristics : BT.709
Matrix coefficients : BT.709

Audio
ID : 2
Format : E-AC-3
Format/Info : Enhanced AC-3
Commercial name : Dolby Digital Plus
Codec ID : A_EAC3
Duration : 1 h 37 min
Bit rate mode : Constant
Bit rate : 640 kb/s
Channel(s) : 6 channels
Channel layout : L R C LFE Ls Rs
Sampling rate : 48.0 kHz
Frame rate : 31.250 FPS (1536 SPF)
Compression mode : Lossy
Stream size : 447 MiB (6%)
Language : English
Service kind : Complete Main
Default : Yes
Forced : No

Text
ID : 3
Format : UTF-8
Codec ID : S_TEXT/UTF8
Codec ID/Info : UTF-8 Plain Text
Duration : 1 h 37 min
Bit rate : 80 b/s
Frame rate : 0.343 FPS
Count of elements : 2011
Stream size : 57.3 KiB (0%)
Language : English
Default : No
Forced : No


资源速度为零或资源敏感被和谐时,推荐使用qBittorrent等下载软件,有条件的推荐115更好的下载软件!

下载地址:


游客,如果您要查看本帖隐藏内容请回复




上一篇:暗礁狂鲨 / The Reef: Stalked (2022) 4K高清版本下载
下一篇:野战排 [繁体中字] / Platoon (1986) 4K高清版本下载
回复

使用道具 举报

47

主题

1523

帖子

4363

积分

4K家园VIP

Rank: 9Rank: 9Rank: 9

积分
4363
发表于 2022-7-29 22:02:33 来自手机 | 显示全部楼层
专业抢沙发的!哈哈
回复 支持 反对

使用道具 举报

主题

帖子

27

积分

新手上路

Rank: 1

积分
27
发表于 2022-7-30 08:22:36 | 显示全部楼层
666666666666666666
回复 支持 反对

使用道具 举报

主题

帖子

22

积分

新手上路

Rank: 1

积分
22
发表于 2022-7-30 18:50:13 | 显示全部楼层
vdfdsdsfdsaffadfds
回复 支持 反对

使用道具 举报

主题

帖子

9

积分

4K家园VIP

Rank: 9Rank: 9Rank: 9

积分
9
发表于 2022-7-30 20:57:22 | 显示全部楼层
666666
回复

使用道具 举报

53

主题

1586

帖子

4598

积分

4K家园VIP

Rank: 9Rank: 9Rank: 9

积分
4598
发表于 2022-7-30 23:41:14 | 显示全部楼层
前排顶,很好!
回复 支持 反对

使用道具 举报

49

主题

1531

帖子

4395

积分

4K家园VIP

Rank: 9Rank: 9Rank: 9

积分
4395
发表于 2022-7-31 18:44:35 | 显示全部楼层
大人,此事必有蹊跷!
回复 支持 反对

使用道具 举报

主题

帖子

0

积分

4K家园VIP

Rank: 9Rank: 9Rank: 9

积分
0
发表于 2022-8-1 00:05:09 | 显示全部楼层
太好啦&萬分感謝版主的無私發佈分享%
回复 支持 反对

使用道具 举报

81

主题

1621

帖子

4709

积分

4K家园VIP

Rank: 9Rank: 9Rank: 9

积分
4709
发表于 2022-8-1 08:07:17 | 显示全部楼层
支持,楼下的跟上哈~
回复 支持 反对

使用道具 举报

39

主题

1525

帖子

4371

积分

4K家园VIP

Rank: 9Rank: 9Rank: 9

积分
4371
发表于 2022-8-1 18:02:29 来自手机 | 显示全部楼层
珍爱生命,果断回帖。
回复 支持 反对

使用道具 举报

您需要登录后才可以回帖 登录 | 立即注册

本版积分规则

精彩图文
Archiver|手机版|TAG|Sitemap|新帖|专题|联系我们:邮箱: 4kjia.com@gmail.com   

4k家园   ©2019